Интеллигентный торрент-трекер
canvas not supported
Нас вместе: 4 105 332

Haikyuu!! Karasuno Koukou vs Shiratorizawa Gakuen Koukou / Волейбол!! Старшая Карасуно против академии Сираторидзава [ТВ-3] [2016, TV, 8 из 10] WEB-DL 720p Raw+Rus


 
 
RSS
Начать новую тему   Ответить на тему    Торрент-трекер NNM-Club -> Аниме сериалы -> Аниме сериалы с русской озвучкой
Автор Сообщение
Ampho_DnB ®
RG Releasers
 
Стаж: 4 года 10 мес.
Сообщений: 3754
Ratio: 157,163
Поблагодарили: 56075
100%
Откуда: дует?
roody.gif
Haikyuu!! Karasuno Koukou vs Shiratorizawa Gakuen Koukou / Волейбол!! Старшая Карасуно против академии Сираторидзава [ТВ-3]
Жанр: спорт, комедия, повседневность
Тип: TV-сериал
Продолжительность: 8 из 10 эпизодов по 25 минут
Выпуск: c 08.10.2016
Автор: Фурудатэ Харуити
Снято по манге: Haikyuu!!
Режиссер: Мицунака Сусуму
Производство: Production I.G
Информационные ссылки: AniDB || World Art || MAL || ANN
Релиз подготовлен группой SHIZA Project
  • Перевод: AOS Team
  • Озвучивание: Snowly, Yupi, nDrOiDze, Тань-УХ-а
  • Тайминг и работа со звуком: Gigantic Guyver

Описание:
12-летний Сёё Хината увидел по телевизору несколько матчей – и влюбился в волейбол. Три года парень работал на свою мечту – и в последний год средней школы смог собрать команду и вывести ее на настоящий турнир. А там, понятно, новичков, набранных «с бору по сосенке», побили в первом же круге, причем жуткий разгром им устроил, чуть ли не в одиночку, гениальный плеймейкер Тобио Кагэяма по кличке Король. Рыжий фанат мяча над сеткой не сдался и, жаждая реванша, поступил в старшую школу Карасуно, то есть «Воронье поле», где сразу пошел в волейбольный клуб. Угадайте, кого он там встретил? Вот так заклятые друзья-соперники начали защищать черно-желтые цвета «Воронов». Не без трудностей (молодых да ранних никто не любит), но оба все-таки стали полноправными членами клуба, хотя игровая философия у ребят разная: Хината верит в «превозмогание» и командный дух, Кагэяма – в жесткий контроль и личное мастерство.

Качество: WEB-DLRip | Энкод: HorribleSubs
Формат: MKV
Видео: x264, 1280x720, ~1 776 kbps, 23.976 fps
Аудио: AAC, 128 kbps, 44.1 kHz, 2 ch
Аудио: AAC, 192 kbps, 48.0 kHz, 2 ch
Субтитры: ASS, Встроенные, Полные | Надписи «AOS Team»
Переводчик: Хаттори, Makentosh | Редактор: Хаттори

01. Приветствие
02. Угроза слева
03. Чудовищная догадливость
04. Ореол луны
05. Личность против цифр
06. Химическая реакция при столкновениях
07. Одержимость
08. Раздражающий парень

09. Волейбол дураков
General
Unique ID : 182250426012587464491309342963454997676 (0x891C27C0A8C6591183F42FAC644C74AC)
Complete name : Haikyuu!! Karasuno Koukou vs Shiratorizawa Gakuen Koukou [SHIZA Project]\Haikyuu!! Karasuno Koukou vs Shiratorizawa Gakuen Koukou - 01 (1280x720 x264 AAC).mkv
Format : Matroska
Format version : Version 4 / Version 2
File size : 453 MiB
Duration : 24 min 27 s
Overall bit rate : 2 590 kb/s
Encoded date : UTC 2016-10-12 20:52:36
Writing application : mkvmerge v9.4.2 ('So High') 64bit
Writing library : libebml v1.3.4 + libmatroska v1.4.5
Attachments : ACADEBOL.TTF / ANTQUAB.TTF / arial.ttf / arialbd.ttf / consolai_3.ttf / corbelb_4.ttf / corbelz_3.ttf / georgia.ttf / georgiab.ttf / impact.ttf / MACH_ODG.TTF / palab.ttf / tahomabd.ttf

Video
ID : 1
Format : AVC
Format/Info : Advanced Video Codec
Format profile : High@L4.1
Format settings, CABAC : Yes
Format settings, ReFrames : 4 frames
Codec ID : V_MPEG4/ISO/AVC
Duration : 24 min 26 s
Bit rate : 2 176 kb/s
Width : 1 280 pixels
Height : 720 pixels
Display aspect ratio : 16:9
Frame rate mode : Constant
Frame rate : 23.976 (24000/1001) FPS
Color space : YUV
Chroma subsampling : 4:2:0
Bit depth : 8 bits
Scan type : Progressive
Bits/(Pixel*Frame) : 0.098
Stream size : 381 MiB (84%)
Writing library : x264 core 129 r2245+729M 1a52e03
Encoding settings : cabac=1 / ref=4 / deblock=1:1:-1 / analyse=0x3:0x113 / me=umh / subme=9 / psy=1 / fade_compensate=0.00 / psy_rd=1.00:0.00 / mixed_ref=1 / me_range=24 / chroma_me=1 / trellis=2 / 8x8dct=1 / cqm=0 / deadzone=21,11 / fast_pskip=1 / chroma_qp_offset=-2 / threads=8 / lookahead_threads=1 / sliced_threads=0 / nr=0 / decimate=1 / interlaced=0 / bluray_compat=0 / constrained_intra=0 / fgo=0 / bframes=9 / b_pyramid=2 / b_adapt=2 / b_bias=0 / direct=1 / weightb=1 / open_gop=0 / weightp=2 / keyint=240 / keyint_min=24 / scenecut=40 / intra_refresh=0 / rc=crf / mbtree=0 / crf=17.5 / qcomp=0.72 / qpmin=0 / qpmax=69 / qpstep=4 / ip_ratio=1.40 / pb_ratio=1.30 / aq=1:0.85
Language : Japanese
Default : Yes
Forced : No
Color range : Limited
Color primaries : BT.709
Transfer characteristics : BT.709
Matrix coefficients : BT.709

Audio #1
ID : 2
Format : AAC
Format/Info : Advanced Audio Codec
Format profile : LC
Codec ID : A_AAC
Duration : 24 min 26 s
Bit rate : 192 kb/s
Channel(s) : 2 channels
Channel positions : Front: L R
Sampling rate : 48.0 kHz
Frame rate : 46.875 FPS (1024 spf)
Compression mode : Lossy
Stream size : 33.6 MiB (7%)
Title : SHIZA Project
Language : Russian
Default : Yes
Forced : No

Audio #2
ID : 3
Format : AAC
Format/Info : Advanced Audio Codec
Format profile : LC
Codec ID : A_AAC
Duration : 24 min 27 s
Bit rate : 192 kb/s
Channel(s) : 2 channels
Channel positions : Front: L R
Sampling rate : 48.0 kHz
Frame rate : 46.875 FPS (1024 spf)
Compression mode : Lossy
Stream size : 33.5 MiB (7%)
Title : Original
Language : Japanese
Default : No
Forced : No

Text #1
ID : 4
Format : ASS
Codec ID : S_TEXT/ASS
Codec ID/Info : Advanced Sub Station Alpha
Duration : 23 min 40 s
Bit rate : 50 b/s
Count of elements : 73
Compression mode : Lossless
Stream size : 8.68 KiB (0%)
Title : Надписи
Language : Russian
Default : Yes
Forced : No

Text #2
ID : 5
Format : ASS
Codec ID : S_TEXT/ASS
Codec ID/Info : Advanced Sub Station Alpha
Duration : 24 min 7 s
Bit rate : 215 b/s
Count of elements : 448
Compression mode : Lossless
Stream size : 38.0 KiB (0%)
Title : Субтитры
Language : Russian
Default : No
Forced : No


Время раздачи: До первых сидов
[NNMClub.to]_Haikyuu!! Karasuno Koukou vs Shiratorizawa Gakuen Koukou [SHIZA Project].torrent
 Торрент:   Зарегистрирован
 
Примагнититься
Free Leech
Зарегистрируйтесь и скачайте торрент!
15,7 KB
 Зарегистрирован:   03 Дек 2016 21:29:33
 Размер:   2,87 GB  (
 Рейтинг:   4,1 (Голосов: 17)
 Поблагодарили:   48
 Проверка:   Оформление проверено модератором 03 Дек 2016 22:43:49
Как cкачать  ·  Как раздать  ·  Правильно оформить  ·  Поднять ратио!  


Последний раз редактировалось: Ampho_DnB (03 Дек 2016 21:29:09), всего редактировалось 5 раз(а)
Ampho_DnB ®
RG Releasers
 
Стаж: 4 года 10 мес.
Сообщений: 3754
Ratio: 157,163
Поблагодарили: 56075
100%
Откуда: дует?
roody.gif
Торрент обновлен. Добавлена 2 серия.
oldbarrel
Стаж: 5 лет 1 мес.
Сообщений: 17
Ratio: 16,52
9.63%
ООоооо Ништяк!!!
Ampho_DnB ®
RG Releasers
 
Стаж: 4 года 10 мес.
Сообщений: 3754
Ratio: 157,163
Поблагодарили: 56075
100%
Откуда: дует?
roody.gif
Торрент обновлен. Добавлена 3 серия.
Ampho_DnB ®
RG Releasers
 
Стаж: 4 года 10 мес.
Сообщений: 3754
Ratio: 157,163
Поблагодарили: 56075
100%
Откуда: дует?
roody.gif
Торрент обновлен. Добавлена 4 серия.
Fu11eren
Стаж: 6 лет 5 мес.
Сообщений: 813
Ratio: 9,381
Поблагодарили: 7834
100%
Откуда: Москва
russia.gif
Как аниме? Первые сезоны надо смотреть или и так все понятно? Искал что-то спортивное, а то аниме толком не смотрю, но первый шаг вон понравился!

_________________
В одном не вправе мы жаловаться на жизнь: она никого не держит.
Ampho_DnB ®
RG Releasers
 
Стаж: 4 года 10 мес.
Сообщений: 3754
Ratio: 157,163
Поблагодарили: 56075
100%
Откуда: дует?
roody.gif
Торрент обновлен. Добавлена 5 серия.
Domprost

Online
Стаж: 2 года 9 мес.
Сообщений: 263
Ratio: 10,736
Поблагодарили: 6
100%
Fu11eren писал(а): Перейти к сообщению
Как аниме? Первые сезоны надо смотреть или и так все понятно? Искал что-то спортивное, а то аниме толком не смотрю, но первый шаг вон понравился!

Стоит смотреть однозначно =) , ничего кроме спортивного духа в этом аниме нет :подмигивание:
Ampho_DnB ®
RG Releasers
 
Стаж: 4 года 10 мес.
Сообщений: 3754
Ratio: 157,163
Поблагодарили: 56075
100%
Откуда: дует?
roody.gif
Торрент обновлен. Добавлены 6 и 7 серии.
Ampho_DnB ®
RG Releasers
 
Стаж: 4 года 10 мес.
Сообщений: 3754
Ratio: 157,163
Поблагодарили: 56075
100%
Откуда: дует?
roody.gif
Торрент обновлен. Добавлена 8 серия.
Показать сообщения:   
Начать новую тему   Ответить на тему    Торрент-трекер NNM-Club -> Аниме сериалы -> Аниме сериалы с русской озвучкой Часовой пояс: GMT + 3
Страница 1 из 1