Интеллигентный торрент-трекер
canvas not supported
Нас вместе: 4 117 272

Нерв / Nerve (2016) BDRip [H.264/720p] [EN]


 
 
RSS
Начать новую тему   Ответить на тему    Торрент-трекер NNM-Club -> Зарубежное кино -> Фильмы в оригинале (HD)
Автор Сообщение
smaster67 ®
Модератор Видео
Покровитель талантов Uploader 300+
Стаж: 7 лет 5 мес.
Сообщений: 6278
Ratio: 181,17
Поблагодарили: 174836
100%
Нерв / Nerve (2016) BDRip [H.264/720p] [EN]

Производство: США, Гонконг
Жанр: триллер, криминал, приключения

Режиссер: Генри Джуст , Эриель Шульман
Актеры: Эмма Робертс, Дэйв Франко, Эмили Мид, Майлс Хейзер, Кимико Гленн, Марк Джон Джеффрис, Машин Ган Келли, Эд Сквайр, Райтор Дойл, Джош Островский, Эрик Д’Алессандро

Описание:
Поддавшись на уговоры одноклассниц, тихоня Ви открывает для себя мир популярной онлайн-игры «Нерв», где участники выполняют задания разной степени сложности, которые придумывают для них другие пользователи. В случае успеха игроки получают очень неплохие деньги. Ви проявляет неожиданную для самой себя смелость и отсутствие комплексов, и в очередном раунде знакомится с парнем по имени Иэн. Красивая пара нравится зрителям игры, и они решают, что следующие задания Ви и Иэн должны выполнять только вместе. Ставки растут, задания становятся все опаснее, и Ви постепенно понимает, что выйти из игры по собственной воле не получится. Те, кто считают себя игроками, на самом деле всего лишь пешки в руках таинственного сообщества Наблюдателей. И никто из участников игры не знает, какое задание станет следующим - или последним.



Продолжительность: 01:36:18
Качество видео: BDRip 720p
Перевод: Отсутствует
Язык озвучки: Английский

Видео: AVC, 1280x536 (2.40:1), 5728 kbps, 23,976 fps, 0,348 bpp
Аудио: английский / DTS / 2.0 / 48 kHz / 768 kbps / 24 bit
Код: выделить все
General
Unique ID                                Nerve.2016.720p.mkv
Format                                   : Matroska
Format version                           : Version 4 / Version 2
File size                                : 4.37 GiB
Duration                                 : 1 h 36 min
Overall bit rate                         : 6 497 kb/s
Encoded date                             : UTC 2016-10-12 04:32:46
Writing application                      : mkvmerge v8.3.0 ('Over the Horizon') 64bit
Writing library                          : libebml v1.3.1 + libmatroska v1.4.2

Video
ID                                       : 1
Format                                   : AVC
Format/Info                              : Advanced Video Codec
Format profile                           : High@L4.1
Format settings, CABAC                   : Yes
Format settings, ReFrames                : 5 frames
Codec ID                                 : V_MPEG4/ISO/AVC
Duration                                 : 1 h 36 min
Bit rate                                 : 5 728 kb/s
Width                                    : 1 280 pixels
Height                                   : 536 pixels
Display aspect ratio                     : 2.40:1
Frame rate mode                          : Constant
Frame rate                               : 23.976 FPS
Color space                              : YUV
Chroma subsampling                       : 4:2:0
Bit depth                                : 8 bits
Scan type                                : Progressive
Bits/(Pixel*Frame)                       : 0.348
Stream size                              : 3.85 GiB (88%)
Writing library                          : x264 core 148 r2692 64f4e24
Encoding settings                        : cabac=1 / ref=5 / deblock=1:0:0 / analyse=0x3:0x133 / me=umh / subme=7 / psy=1 / psy_rd=1.00:0.00 / mixed_ref=1 / me_range=16 / chroma_me=1 / trellis=1 / 8x8dct=1 / cqm=0 / deadzone=21,11 / fast_pskip=0 / chroma_qp_offset=-2 / threads=17 / lookahead_threads=2 / sliced_threads=0 / nr=0 / decimate=1 / interlaced=0 / bluray_compat=0 / constrained_intra=0 / bframes=3 / b_pyramid=2 / b_adapt=1 / b_bias=0 / direct=1 / weightb=1 / open_gop=0 / weightp=2 / keyint=250 / keyint_min=23 / scenecut=40 / intra_refresh=0 / rc_lookahead=40 / rc=2pass / mbtree=1 / bitrate=5728 / ratetol=1.0 / qcomp=0.60 / qpmin=0 / qpmax=69 / qpstep=4 / cplxblur=20.0 / qblur=0.5 / ip_ratio=1.40 / aq=1:1.00
Language                                 : English
Default                                  : Yes
Forced                                   : No

Audio
ID                                       : 2
Format                                   : DTS
Format/Info                              : Digital Theater Systems
Mode                                     : 16
Format settings, Endianness              : Big
Codec ID                                 : A_DTS
Duration                                 : 1 h 36 min
Bit rate mode                            : Constant
Bit rate                                 : 768 kb/s
Channel(s)                               : 2 channels
Channel positions                        : Front: L R
Sampling rate                            : 48.0 kHz
Frame rate                               : 93.750 FPS (512 spf)
Bit depth                                : 24 bits
Compression mode                         : Lossy
Stream size                              : 529 MiB (12%)
Language                                 : English
Default                                  : Yes
Forced                                   : No

Menu
00:00:00.000                             : en:00:00:00.000
00:05:14.189                             : en:00:05:14.189
00:13:43.406                             : en:00:13:43.406
00:20:40.239                             : en:00:20:40.239
00:28:42.304                             : en:00:28:42.304
00:33:27.088                             : en:00:33:27.088
00:38:34.437                             : en:00:38:34.437
00:43:36.405                             : en:00:43:36.405
00:49:17.872                             : en:00:49:17.872
00:53:07.643                             : en:00:53:07.643
00:58:18.578                             : en:00:58:18.578
01:05:59.330                             : en:01:05:59.330
01:10:17.338                             : en:01:10:17.338
01:14:40.643                             : en:01:14:40.643
01:19:07.868                             : en:01:19:07.868
01:27:20.860                             : en:01:27:20.860

Скриншоты:



Время раздачи: с 13:00 до 23:00
[NNMClub.to]_Nerve.2016.720p.mkv.torrent
 Торрент: Серебряная раздча  Зарегистрирован
 
Примагнититься

Зарегистрируйтесь и скачайте торрент!
22 KB
 Зарегистрирован:   13 Окт 2016 21:39:16
 Размер:   4,37 GB  (
 Рейтинг:   4,8 (Голосов: 19)
 Поблагодарили:   86
 Проверка:   Оформление проверено модератором 13 Окт 2016 21:40:16
Как cкачать  ·  Как раздать  ·  Правильно оформить  ·  Поднять ратио!  


Последний раз редактировалось: smaster67 (14 Окт 2016 15:29:26), всего редактировалось 2 раз(а)
Dorae​mon_1​47​
Стаж: 2 года 4 мес.
Сообщений: 105
Ratio: 56,727
71.91%
название то какое мммм
aktaff1
Стаж: 2 года 8 мес.
Сообщений: 139
Ratio: 5,532
100%
Откуда: London
uk.gif
Спасибо, жаль без сабов

_________________
WWWiktor
Стаж: 6 лет 6 мес.
Сообщений: 260
Ratio: 2,818
100%
Откуда: Земля - Earth
krevedko.png
А я бы предложил нашим политикам пролоббировать в Америке закон, запрещающий в США снимать фильмы на любом языке, кроме русского.

_________________
Тридцать спиц в колесе сходятся к втулке, середина которой пуста...
VAshdd
Стаж: 3 года 10 мес.
Сообщений: 477
Ratio: 10,967
23.39%
Что то даже не знаю что написать. Ну на четверку может потянет.
Показать сообщения:   
Начать новую тему   Ответить на тему    Торрент-трекер NNM-Club -> Зарубежное кино -> Фильмы в оригинале (HD) Часовой пояс: GMT + 3
Страница 1 из 1