Интеллигентный торрент-трекер
canvas not supported
Нас вместе: 4 103 766

Капитан Фантастик / Captain Fantastic (2016) BDRip [H.264/720p] [EN / EN Sub]


 
 
RSS
Начать новую тему   Ответить на тему    Торрент-трекер NNM-Club -> Зарубежное кино -> Фильмы в оригинале (HD)
Автор Сообщение
smaster67 ®
Модератор Видео
Покровитель талантов Uploader 300+
Стаж: 7 лет 5 мес.
Сообщений: 6258
Ratio: 180,063
Поблагодарили: 173768
100%
Капитан Фантастик / Captain Fantastic (2016) BDRip [H.264/720p] [EN / EN Sub]

Производство: США
Жанр: драма, мелодрама, комедия

Режиссер: Мэтт Росс
Актеры: Вигго Мортенсен, Джордж МакКэй, Саманта Ислер, Анналиса Бассо, Николас Хэмилтон, Шри Крукс, Чарли Шотуэлл, Трин Миллер, Кэтрин Хан, Стив Зан, Элайджа Стивенсон, Тедди Ван Ии

Описание:
Они говорят на нескольких языках, знают квантовую физику и разбираются в философии. Они умеют охотиться и обращаться с оружием. Они живут в лесу в полной гармонии с природой. Лишь стечение обстоятельств заставляет их покинуть родной дом и отправиться в большой город. Что будет, когда они столкнутся с цивилизацией, когда на них обрушится первая любовь и мир гаджетов и социальных сетей?



Продолжительность: 01:59:29
Качество видео: BDRip 720p
Перевод: Отсутствует
Язык озвучки: Английский
Язык субтитров: английский
Вид субтитров: Вшитые

Видео: AVC, 1280x534 (2.40:1), 5500 kbps, 23,976 fps, 0,336 bpp
Аудио: DTS / 5.1 / 48 kHz / 1509 kbps / 24 bit
Код: выделить все
General
Unique ID                               Captain.Fantastic.2016.720p.BluRay.x264.DTS-HDChina\Captain.Fantastic.2016.720p.BluRay.x264.DTS-HDChina.mkv
Format                                   : Matroska
Format version                           : Version 2
File size                                : 5.86 GiB
Duration                                 : 1 h 59 min
Overall bit rate                         : 7 015 kb/s
Movie name                               : Medusa @ HDChina
Encoded date                             : UTC 2016-10-14 03:56:54
Writing application                      : mkvmerge v5.8.0 ('No Sleep / Pillow') built on Sep  2 2012 15:37:04
Writing library                          : libebml v1.2.3 + libmatroska v1.3.0

Video
ID                                       : 1
Format                                   : AVC
Format/Info                              : Advanced Video Codec
Format profile                           : High@L4.1
Format settings, CABAC                   : Yes
Format settings, ReFrames                : 12 frames
Muxing mode                              : Header stripping
Codec ID                                 : V_MPEG4/ISO/AVC
Duration                                 : 1 h 59 min
Bit rate                                 : 5 500 kb/s
Width                                    : 1 280 pixels
Height                                   : 534 pixels
Display aspect ratio                     : 2.40:1
Frame rate mode                          : Constant
Frame rate                               : 23.976 (24000/1001) FPS
Color space                              : YUV
Chroma subsampling                       : 4:2:0
Bit depth                                : 8 bits
Scan type                                : Progressive
Bits/(Pixel*Frame)                       : 0.336
Stream size                              : 4.48 GiB (77%)
Writing library                          : x264 core 148 r2665kMod a01e339
Encoding settings                        : cabac=1 / ref=12 / deblock=1:-3:-3 / analyse=0x3:0x133 / me=umh / subme=11 / psy=1 / fade_compensate=0.00 / psy_rd=1.05:0.00 / mixed_ref=1 / me_range=32 / chroma_me=1 / trellis=2 / 8x8dct=1 / cqm=0 / deadzone=21,11 / fast_pskip=0 / chroma_qp_offset=-2 / threads=17 / lookahead_threads=2 / sliced_threads=0 / nr=0 / decimate=0 / interlaced=0 / bluray_compat=0 / constrained_intra=0 / fgo=0 / bframes=8 / b_pyramid=2 / b_adapt=2 / b_bias=0 / direct=3 / weightb=1 / open_gop=0 / weightp=2 / keyint=240 / keyint_min=24 / scenecut=40 / intra_refresh=0 / rc=2pass / mbtree=0 / bitrate=5500 / ratetol=1.0 / qcomp=0.70 / qpmin=0 / qpmax=69 / qpstep=4 / cplxblur=20.0 / qblur=0.5 / ip_ratio=1.20 / pb_ratio=1.20 / aq=3:0.85
Language                                 : English
Default                                  : Yes
Forced                                   : No

Audio
ID                                       : 2
Format                                   : DTS
Format/Info                              : Digital Theater Systems
Mode                                     : 16
Format settings, Endianness              : Big
Muxing mode                              : Header stripping
Codec ID                                 : A_DTS
Duration                                 : 1 h 59 min
Bit rate mode                            : Constant
Bit rate                                 : 1 509 kb/s
Channel(s)                               : 6 channels
Channel positions                        : Front: L C R, Side: L R, LFE
Sampling rate                            : 48.0 kHz
Frame rate                               : 93.750 FPS (512 spf)
Bit depth                                : 24 bits
Compression mode                         : Lossy
Stream size                              : 1.26 GiB (22%)
Default                                  : Yes
Forced                                   : No

Text
ID                                       : 3
Format                                   : PGS
Muxing mode                              : zlib
Codec ID                                 : S_HDMV/PGS
Codec ID/Info                            : Picture based subtitle format used on BDs/HD-DVDs
Language                                 : English
Default                                  : Yes
Forced                                   : No

Menu
00:00:00.000                             : en:00:00:00.000
00:05:14.272                             : en:00:05:14.272
00:11:12.046                             : en:00:11:12.046
00:17:34.220                             : en:00:17:34.220
00:25:20.728                             : en:00:25:20.728
00:31:37.187                             : en:00:31:37.187
00:37:41.509                             : en:00:37:41.509
00:40:25.548                             : en:00:40:25.548
00:46:10.601                             : en:00:46:10.601
00:54:03.449                             : en:00:54:03.449
00:59:34.696                             : en:00:59:34.696
01:08:21.431                             : en:01:08:21.431
01:14:08.486                             : en:01:14:08.486
01:20:18.647                             : en:01:20:18.647
01:24:30.774                             : en:01:24:30.774
01:30:19.331                             : en:01:30:19.331
01:36:52.807                             : en:01:36:52.807
01:43:03.719                             : en:01:43:03.719
01:48:23.163                             : en:01:48:23.163
01:52:47.344                             : en:01:52:47.344

Скриншоты:



Время раздачи: с 13:00 до 23:00
[NNMClub.to]_Captain.Fantastic.2016.720p.BluRay.x264.DTS-HDChina.mkv.torrent
 Торрент: Серебряная раздча  Зарегистрирован
 
Примагнититься
Free Leech
Зарегистрируйтесь и скачайте торрент!
29,5 KB
 Зарегистрирован:   14 Окт 2016 15:32:47
 Размер:   5,86 GB  (
 Рейтинг:   4,8 (Голосов: 12)
 Поблагодарили:   50
 Проверка:   Оформление проверено модератором 14 Окт 2016 15:33:22
Как cкачать  ·  Как раздать  ·  Правильно оформить  ·  Поднять ратио!  
v0dka
Стаж: 6 лет 11 мес.
Сообщений: 41
Ratio: 11,212
2.8%
классный фильм!!!!
VAshdd
Стаж: 3 года 10 мес.
Сообщений: 476
Ratio: 10,988
23.41%
Фильм очень хороший, спасибо что так удачно выложили в пятничный вечер!
Super​BaLaM​uT​
Стаж: 6 лет 6 мес.
Сообщений: 19
Ratio: 0,561
2.06%
Ура! Дождался озвучки! Спасибо
Показать сообщения:   
Начать новую тему   Ответить на тему    Торрент-трекер NNM-Club -> Зарубежное кино -> Фильмы в оригинале (HD) Часовой пояс: GMT + 3
Страница 1 из 1