Интеллигентный торрент-трекер
canvas not supported
Нас вместе: 4 112 243

Идеальный выбор / The Perfect Match (2016) BDRemux [H.264/1080p] [EN / EN, Sp Sub]


 
 
RSS
Начать новую тему   Ответить на тему    Торрент-трекер NNM-Club -> Зарубежное кино -> Фильмы в оригинале (HD)
Автор Сообщение
smaster67 ®
Модератор Видео
Покровитель талантов Uploader 300+
Стаж: 7 лет 5 мес.
Сообщений: 6275
Ratio: 180,784
Поблагодарили: 174392
100%
Идеальный выбор / The Perfect Match (2016) BDRemux [H.264/1080p] [EN / EN, Sp Sub]

Производство: США
Жанр: мелодрама, комедия

Режиссер: Билле Вудрафф
Актеры: Терренс Дженкинс, Кэсси, Дональд Фэйсон, Даша Поланко, Роберт Кристофер Райли, Лорен Лондон, Пола Пэттон, Бо Каспер Смарт, Джо Пантольяно, Френч Монтана

Описание:
Не верящий в длительные отношения ловелас Чарли заключает пари со своими друзьями, которые убеждены, что он непременно влюбится в женщину, если проведет с ней хотя бы месяц. Вскоре уверенный в своей правоте Чарли встречает очаровательную и загадочную Еву. Поначалу он был уверен, что это будет лишь очередная ничего не значащая интрижка, но в какой-то момент понял, что хочет чего-то большего...



Продолжительность: 01:35:49
Качество видео: BDRemux
Перевод: Отсутствует
Язык озвучки: Английский
Язык субтитров: английский, испанский
Вид субтитров: Вшитые

Видео: AVC, 1920x1080 (16:9), 19835 kbps, 23,976 fps, 0,399 bpp
Аудио №1: английский / DTS-HD / 5.1 / 48 kHz / 3575 kbps / 24 bit (Core: 5.1 / 48 kHz / 1509 kbps / 24 bit)
Аудио №2: английский / AC3 / 2.0 / 48 kHz / 192 kbps /
Код: выделить все
General
Unique ID                                The.Perfect.Match.2016.BluRay.1080p.DTS-HD.MA.5.1.AVC.REMUX-FraMeSToR\The.Perfect.Match.2016.BluRay.1080p.DTS-HD.MA.5.1.AVC.REMUX-FraMeSToR.mkv
Format                                   : Matroska
Format version                           : Version 4 / Version 2
File size                                : 15.9 GiB
Duration                                 : 1 h 35 min
Overall bit rate mode                    : Variable
Overall bit rate                         : 23.7 Mb/s
Movie name                               : The Perfect Match
Encoded date                             : UTC 2016-10-14 02:16:41
Writing application                      : mkvmerge v9.4.2 ('So High') 64bit
Writing library                          : libebml v1.3.4 + libmatroska v1.4.5

Video
ID                                       : 1
Format                                   : AVC
Format/Info                              : Advanced Video Codec
Format profile                           : High@L4.1
Format settings, CABAC                   : Yes
Format settings, ReFrames                : 4 frames
Format settings, GOP                     : M=3, N=12
Codec ID                                 : V_MPEG4/ISO/AVC
Duration                                 : 1 h 35 min
Bit rate mode                            : Variable
Bit rate                                 : 19.8 Mb/s
Maximum bit rate                         : 35.0 Mb/s
Width                                    : 1 920 pixels
Height                                   : 1 080 pixels
Display aspect ratio                     : 16:9
Frame rate mode                          : Constant
Frame rate                               : 23.976 (23976/1000) FPS
Original frame rate                      : 23.976 (24000/1001) FPS
Color space                              : YUV
Chroma subsampling                       : 4:2:0
Bit depth                                : 8 bits
Scan type                                : Progressive
Bits/(Pixel*Frame)                       : 0.399
Stream size                              : 13.3 GiB (84%)
Default                                  : Yes
Forced                                   : No

Audio #1
ID                                       : 2
Format                                   : DTS
Format/Info                              : Digital Theater Systems
Format profile                           : MA / Core
Mode                                     : 16
Format settings, Endianness              : Big
Codec ID                                 : A_DTS
Duration                                 : 1 h 35 min
Bit rate mode                            : Variable / Constant
Bit rate                                 : 3 576 kb/s / 1 509 kb/s
Channel(s)                               : 6 channels
Channel positions                        : Front: L C R, Side: L R, LFE
Sampling rate                            : 48.0 kHz
Frame rate                               : 93.750 FPS (512 spf)
Bit depth                                : 24 bits
Compression mode                         : Lossless / Lossy
Stream size                              : 2.39 GiB (15%)
Title                                    : DTS-HD MA 5.1
Language                                 : English
Default                                  : Yes
Forced                                   : No

Audio #2
ID                                       : 3
Format                                   : AC-3
Format/Info                              : Audio Coding 3
Mode extension                           : CM (complete main)
Format settings, Endianness              : Big
Codec ID                                 : A_AC3
Duration                                 : 1 h 35 min
Bit rate mode                            : Constant
Bit rate                                 : 192 kb/s
Channel(s)                               : 2 channels
Channel positions                        : Front: L R
Sampling rate                            : 48.0 kHz
Frame rate                               : 31.250 FPS (1536 spf)
Compression mode                         : Lossy
Stream size                              : 132 MiB (1%)
Title                                    : Commentary by Bille Woodruff/Terrence Jenkins/Cassie Ventura/Lauren London/Donald Faison
Language                                 : English
Default                                  : No
Forced                                   : No

Text #1
ID                                       : 4
Format                                   : PGS
Codec ID                                 : S_HDMV/PGS
Codec ID/Info                            : Picture based subtitle format used on BDs/HD-DVDs
Duration                                 : 1 h 34 min
Bit rate                                 : 46.6 kb/s
Count of elements                        : 3960
Stream size                              : 31.5 MiB (0%)
Title                                    : English
Language                                 : English
Default                                  : Yes
Forced                                   : No

Text #2
ID                                       : 5
Format                                   : PGS
Codec ID                                 : S_HDMV/PGS
Codec ID/Info                            : Picture based subtitle format used on BDs/HD-DVDs
Duration                                 : 1 h 34 min
Bit rate                                 : 48.7 kb/s
Count of elements                        : 4130
Stream size                              : 32.9 MiB (0%)
Title                                    : English (SDH)
Language                                 : English
Default                                  : No
Forced                                   : No

Text #3
ID                                       : 6
Format                                   : PGS
Codec ID                                 : S_HDMV/PGS
Codec ID/Info                            : Picture based subtitle format used on BDs/HD-DVDs
Duration                                 : 1 h 34 min
Bit rate                                 : 41.7 kb/s
Count of elements                        : 3568
Stream size                              : 28.2 MiB (0%)
Title                                    : Spanish (Latin American)
Language                                 : Spanish
Default                                  : No
Forced                                   : No

Menu
00:00:00.000                             : en:Chapter 1
00:08:00.480                             : en:Chapter 2
00:11:00.368                             : en:Chapter 3
00:18:01.580                             : en:Chapter 4
00:25:26.107                             : en:Chapter 5
00:31:21.713                             : en:Chapter 6
00:37:17.318                             : en:Chapter 7
00:43:04.999                             : en:Chapter 8
00:49:51.863                             : en:Chapter 9
00:56:39.687                             : en:Chapter 10
01:02:01.467                             : en:Chapter 11
01:07:33.507                             : en:Chapter 12
01:11:56.854                             : en:Chapter 13
01:18:19.903                             : en:Chapter 14
01:26:13.167                             : en:Chapter 15
01:30:14.242                             : en:Chapter 16

Скриншоты:



Время раздачи: с 13:00 до 23:00
[NNMClub.to]_The.Perfect.Match.2016.BluRay.1080p.DTS-HD.MA.5.1.AVC.REMUX-FraMeSToR.mkv.torrent
 Торрент: Золотая раздача  Зарегистрирован
 
Примагнититься
Free Leech
Зарегистрируйтесь и скачайте торрент!
79,7 KB
 Зарегистрирован:   14 Окт 2016 15:58:49
 Размер:   15,9 GB  (
 Рейтинг:   5 (Голосов: 10)
 Поблагодарили:   41
 Проверка:   Оформление проверено модератором 14 Окт 2016 15:59:40
Как cкачать  ·  Как раздать  ·  Правильно оформить  ·  Поднять ратио!  
Показать сообщения:   
Начать новую тему   Ответить на тему    Торрент-трекер NNM-Club -> Зарубежное кино -> Фильмы в оригинале (HD) Часовой пояс: GMT + 3
Страница 1 из 1