Интеллигентный торрент-трекер
canvas not supported
Нас вместе: 4 110 277

Porcupine Tree - The Delerium Years 1994-1997 (2016) Box Set [FLAC 2.0|192/24|image+cue|Vinyl-Rip]<Art Rock>


 
 
RSS
Начать новую тему   Ответить на тему    Торрент-трекер NNM-Club -> HD Audio и Многоканальная Музыка -> Vinyl-Rip и Hand-Made
Автор Сообщение
tegoffs ®
Виниловод. Сталкер
Стаж: 8 лет 11 мес.
Сообщений: 2896
Ratio: 17,52
Поблагодарили: 8248
100%
Откуда: мне знать?
honduras.gif
Porcupine Tree - The Delerium Years 1994 - 1997
Год: 2016
Лейбл: Kscope – KSCOPE894
Страна: UK
Жанр: Art Rock
Продолжительность: 04:17:08

Кодек: FLAC 2.0 24/192
Тип рипа: image+.cue
Формат записи: 32/192
Формат раздачи: 24/192
Состояние диска терпимое - ex-.
Тракт: AT-OC9/III -> Yamaha GT-750 -> Lehmann Audio Black Cube SE -> Lynx L22 (интерконнекты Yamaha и Lynx).
Снято Sound Forge Pro 11, из постобработки - убрал существенные щелчки.
Кьюшки и постеры прописаны во флаки.
Коробка спереди и сзади сосканирована, также сосканирована вкладка и пятаки для первого диска. Ограничился первым диском потому как оформление по сути одно и тоже для всех остальных дисков - просто времни было жаль все это сканить. Буклет не стал сканить - каюсь - но его нужно либо просто фотографировать, либо раздирать - иначе в сканер не вошёл бы.

Срез на спектре намекает, но что есть, то есть.
Год издания: 1995
Продолжительноcть: 01:10:29
Трек лист:
01. The Sky Moves Sideways (Phase One) (18:38)
02. Stars Die (5:08)
03. Dislocated Day (5:24)
04. Prepare Yourself (2:00)
05. The Sky Moves Sideways (Phase Two) (16:51)
06. Moonloop (22:29)
Код: выделить все

General
Complete name : I:\music collection\torrents\Porcupine Tree - 2016 - The Delerium Years 1994 - 1997\1995-The Sky Moves Sideways\Porcupine Tree - The Sky Moves Sideways.flac
Format : FLAC
Format/Info : Free Lossless Audio Codec
File size : 2.81 GiB
Duration : 1h 16mn
Overall bit rate mode : Variable
Overall bit rate : 5 290 Kbps
Album : The Sky Moves Sideways
Performer : Porcupine Tree
Producer : https://www.discogs.com/Porcupine-Tree-The-Delerium-Years-1994-1997/release/8088258
Genre : Progressive Rock
Recorded date : 1995
Cover : Yes
Cover type : Cover (front)
Cover MIME : image/jpeg
Comment : AT-OC9/III -> Yamaha GT-750 -> Lehmann Audio Black Cube SE -> Lynx L22 (интерконнекты Yamaha и Lynx).
CUESHEET : REM GENRE "Progressive Rock" / REM DATE 1995 / PERFORMER "Porcupine Tree" / TITLE "The Sky Moves Sideways" / FILE "Porcupine Tree - The Sky Moves Sideways.flac" WAVE / TRACK 01 AUDIO / TITLE "The Sky Moves Sideways (Phase One)" / PERFORMER "Porcupine Tree" / INDEX 01 00:00:00 / TRACK 02 AUDIO / TITLE "Stars Die" / PERFORMER "Porcupine Tree" / INDEX 01 18:37:50 / TRACK 03 AUDIO / TITLE "Dislocated Day" / PERFORMER "Porcupine Tree" / INDEX 01 23:45:23 / TRACK 04 AUDIO / TITLE "The Moon Touches Your Shoulder" / PERFORMER "Porcupine Tree" / INDEX 01 29:09:47 / TRACK 04 AUDIO / TITLE "Prepare Yourself" / PERFORMER "Porcupine Tree" / INDEX 01 34:49:47 / TRACK 05 AUDIO / TITLE "The Sky Moves Sideways (Phase Two)" / PERFORMER "Porcupine Tree" / INDEX 01 36:49:59 / TRACK 06 AUDIO / TITLE "Moonloop" / PERFORMER "Porcupine Tree" / INDEX 01 53:40:23

Audio
Format : FLAC
Format/Info : Free Lossless Audio Codec
Duration : 1h 16mn
Bit rate mode : Variable
Bit rate : 5 290 Kbps
Channel(s) : 2 channels
Channel positions : Front: L R
Sampling rate : 192 KHz
Bit depth : 24 bits
Stream size : 2.81 GiB (100%)
Writing library : libFLAC 1.3.0 (UTC 2013-05-26)
Код: выделить все

foobar2000 1.3.9 / Dynamic Range Meter 1.1.1
log date: 2016-10-14 20:45:43

--------------------------------------------------------------------------------
Analyzed: Porcupine Tree / The Sky Moves Sideways
--------------------------------------------------------------------------------

DR         Peak         RMS     Duration Track
--------------------------------------------------------------------------------
DR13      -0.50 dB   -18.09 dB     18:38 01-The Sky Moves Sideways (Phase One)
DR12      -1.50 dB   -17.00 dB      5:08 02-Stars Die
DR12      -1.51 dB   -15.83 dB      5:24 03-Dislocated Day
DR12      -6.71 dB   -20.52 dB      2:00 04-Prepare Yourself
DR13      -0.85 dB   -18.17 dB     16:51 05-The Sky Moves Sideways (Phase Two)
DR14      -0.96 dB   -19.54 dB     22:29 06-Moonloop
--------------------------------------------------------------------------------

Number of tracks:  6
Official DR value: DR13

Samplerate:        192000 Hz
Channels:          2
Bits per sample:   24
Bitrate:           5290 kbps
Codec:             FLAC
================================================================================
Год издания: 1996
Продолжительноcть: 01:01:59
Трек лист:
01. Bornlivedie (1:44)
02. Signify (3:28)
03. Sleep of No Dreaming (5:27)
04. Pagan (1:34)
05. Waiting Phase One (4:28)
06. Waiting Phase Two (5:16)
07. Sever (6:32)
08. Idiot Prayer (7:38)
09. Every Home is Wired (5:09)
10. Intermediate Jesus (7:31)
11. 'Light Mass Prayers' (4:20)
12. Dark Matter (8:52)
Код: выделить все

General
Complete name : I:\music collection\torrents\Porcupine Tree - 2016 - The Delerium Years 1994 - 1997\1996-Signify\Porcupine Tree - Signify.flac
Format : FLAC
Format/Info : Free Lossless Audio Codec
File size : 2.21 GiB
Duration : 1h 1mn
Overall bit rate mode : Variable
Overall bit rate : 5 097 Kbps
Album : Signify
Performer : Porcupine Tree
Producer : https://www.discogs.com/Porcupine-Tree-The-Delerium-Years-1994-1997/release/8088258
Genre : Alternative/Indie Rock
Recorded date : 1996
Cover : Yes
Cover type : Cover (front)
Cover MIME : image/jpeg
Comment : AT-OC9/III -> Yamaha GT-750 -> Lehmann Audio Black Cube SE -> Lynx L22 (интерконнекты Yamaha и Lynx).
CUESHEET : REM GENRE Alternative/Indie Rock / REM DATE 1996 / PERFORMER "Porcupine Tree" / TITLE "Signify" / FILE "Porcupine Tree - Signify.flac" WAVE / TRACK 01 AUDIO / TITLE "Bornlivedie" / INDEX 01 00:00:00 / TRACK 02 AUDIO / TITLE "Signify" / INDEX 01 01:44:06 / TRACK 03 AUDIO / TITLE "Sleep of No Dreaming" / INDEX 01 05:12:17 / TRACK 04 AUDIO / TITLE "Pagan" / INDEX 01 10:38:59 / TRACK 05 AUDIO / TITLE "Waiting Phase One" / INDEX 01 12:12:50 / TRACK 06 AUDIO / TITLE "Waiting Phase Two" / INDEX 01 16:41:12 / TRACK 07 AUDIO / TITLE "Sever" / INDEX 01 21:57:39 / TRACK 08 AUDIO / TITLE "Idiot Prayer" / INDEX 01 28:29:04 / TRACK 09 AUDIO / TITLE "Every Home is Wired" / INDEX 01 36:06:59 / TRACK 10 AUDIO / TITLE "Intermediate Jesus" / INDEX 01 41:15:41 / TRACK 11 AUDIO / TITLE "'Light Mass Prayers'" / INDEX 01 48:46:29 / TRACK 12 AUDIO / TITLE "Dark Matter" / INDEX 01 53:06:59

Audio
Format : FLAC
Format/Info : Free Lossless Audio Codec
Duration : 1h 1mn
Bit rate mode : Variable
Bit rate : 5 097 Kbps
Channel(s) : 2 channels
Channel positions : Front: L R
Sampling rate : 192 KHz
Bit depth : 24 bits
Stream size : 2.21 GiB (100%)
Writing library : libFLAC 1.3.0 (UTC 2013-05-26)
Код: выделить все

foobar2000 1.3.9 / Dynamic Range Meter 1.1.1
log date: 2016-10-14 20:56:55

--------------------------------------------------------------------------------
Analyzed: Porcupine Tree / Signify
--------------------------------------------------------------------------------

DR         Peak         RMS     Duration Track
--------------------------------------------------------------------------------
DR12     -10.47 dB   -27.11 dB      1:44 01-Bornlivedie
DR13      -2.23 dB   -17.77 dB      3:28 02-Signify
DR13      -2.70 dB   -18.29 dB      5:27 03-Sleep of No Dreaming
DR10     -15.65 dB   -35.78 dB      1:34 04-Pagan
DR13      -3.83 dB   -20.16 dB      4:28 05-Waiting Phase One
DR12      -0.87 dB   -17.60 dB      5:16 06-Waiting Phase Two
DR13      -2.03 dB   -17.41 dB      6:32 07-Sever
DR12      -2.10 dB   -19.07 dB      7:38 08-Idiot Prayer
DR14      -2.20 dB   -20.67 dB      5:09 09-Every Home is Wired
DR13      -2.58 dB   -19.12 dB      7:31 10-Intermediate Jesus
DR10     -13.97 dB   -28.41 dB      4:20 11-'Light Mass Prayers'
DR12      -1.93 dB   -18.12 dB      8:52 12-Dark Matter
--------------------------------------------------------------------------------

Number of tracks:  12
Official DR value: DR12

Samplerate:        192000 Hz
Channels:          2
Bits per sample:   24
Bitrate:           5097 kbps
Codec:             FLAC
================================================================================
Год издания: 1997
Продолжительноcть: 01:41:53
Трек лист:
01. Bornlivedie (intro) (1:24)
02. Signify (5:29)
03. Waiting (Phase One) (4:27)
04. Waiting (Phase Two) (5:29)
05. The Sky Moves Sideways (12:51)
06. Dislocated Day (6:38)
07. The Sleep Of No Dreaming (5:21)
08. Moonloop (11:46)
09. Up The Downstair (7:41)
10. The Moon Touches Your Shoulder (5:56)
11. Always Never (4:55)
12. IS...NOT (6:09)
13. Radioactive Toy (13:31)
14. Not Beautiful Anymore (10:16)
Код: выделить все
General
Complete name : I:\music collection\torrents\Porcupine Tree - 2016 - The Delerium Years 1994 - 1997\1997-Coma Divine\Porcupine Tree - Coma Divine (part 1).flac
Format : FLAC
Format/Info : Free Lossless Audio Codec
File size : 1.94 GiB
Duration : 53mn 25s
Overall bit rate mode : Variable
Overall bit rate : 5 205 Kbps
Album : Coma Divine
Performer : Porcupine Tree
Producer : https://www.discogs.com/Porcupine-Tree-The-Delerium-Years-1994-1997/release/8088258
Genre : Progressive Rock
Recorded date : 1997
Cover : Yes
Cover type : Cover (front)
Cover MIME : image/jpeg
Comment : AT-OC9/III -> Yamaha GT-750 -> Lehmann Audio Black Cube SE -> Lynx L22 (интерконнекты Yamaha и Lynx).
CUESHEET : REM GENRE "Progressive Rock" / REM DATE 1997 / PERFORMER "Porcupine Tree" / TITLE "Coma Divine" / FILE "Porcupine Tree - Coma Divine (part 1).flac" WAVE / TRACK 01 AUDIO / TITLE "Bornlivedie (intro)" / INDEX 01 00:00:00 / TRACK 02 AUDIO / TITLE "Signify" / INDEX 01 01:23:49 / TRACK 03 AUDIO / TITLE "Waiting (Phase One)" / INDEX 01 06:52:59 / TRACK 04 AUDIO / TITLE "Waiting (Phase Two)" / INDEX 01 11:19:34 / TRACK 05 AUDIO / TITLE "The Sky Moves Sideways" / INDEX 01 16:48:49 / TRACK 06 AUDIO / TITLE "Dislocated Day" / INDEX 01 29:39:55 / TRACK 07 AUDIO / TITLE "The Sleep Of No Dreaming" / INDEX 01 36:18:10 / TRACK 08 AUDIO / TITLE "Moonloop" / INDEX 01 41:39:29

Audio
Format : FLAC
Format/Info : Free Lossless Audio Codec
Duration : 53mn 25s
Bit rate mode : Variable
Bit rate : 5 205 Kbps
Channel(s) : 2 channels
Channel positions : Front: L R
Sampling rate : 192 KHz
Bit depth : 24 bits
Stream size : 1.94 GiB (100%)
Writing library : libFLAC 1.3.0 (UTC 2013-05-26)

General
Complete name : I:\music collection\torrents\Porcupine Tree - 2016 - The Delerium Years 1994 - 1997\1997-Coma Divine\Porcupine Tree - Coma Divine (part 2).flac
Format : FLAC
Format/Info : Free Lossless Audio Codec
File size : 1.74 GiB
Duration : 48mn 27s
Overall bit rate mode : Variable
Overall bit rate : 5 135 Kbps
Album : Coma Divine
Performer : Porcupine Tree
Producer : https://www.discogs.com/Porcupine-Tree-The-Delerium-Years-1994-1997/release/8088258
Genre : Progressive Rock
Recorded date : 1997
Cover : Yes
Cover type : Cover (front)
Cover MIME : image/jpeg
Comment : AT-OC9/III -> Yamaha GT-750 -> Lehmann Audio Black Cube SE -> Lynx L22 (интерконнекты Yamaha и Lynx).
CUESHEET : REM GENRE "Progressive Rock" / REM DATE 1997 / PERFORMER "Porcupine Tree" / TITLE "Coma Divine" / FILE "Porcupine Tree - Coma Divine (part 2).flac" WAVE / TRACK 09 AUDIO / TITLE "Up The Downstair" / INDEX 01 00:00:00 / TRACK 10 AUDIO / TITLE "The Moon Touches Your Shoulder" / INDEX 01 07:40:50 / TRACK 11 AUDIO / TITLE "Always Never" / INDEX 01 13:37:00 / TRACK 12 AUDIO / TITLE "IS...NOT" / INDEX 01 18:31:56 / TRACK 13 AUDIO / TITLE "Radioactive Toy" / INDEX 01 24:40:59 / TRACK 14 AUDIO / TITLE "Not Beautiful Anymore" / INDEX 01 38:11:42

Audio
Format : FLAC
Format/Info : Free Lossless Audio Codec
Duration : 48mn 27s
Bit rate mode : Variable
Bit rate : 5 135 Kbps
Channel(s) : 2 channels
Channel positions : Front: L R
Sampling rate : 192 KHz
Bit depth : 24 bits
Stream size : 1.74 GiB (100%)
Writing library : libFLAC 1.3.0 (UTC 2013-05-26)
Код: выделить все

foobar2000 1.3.9 / Dynamic Range Meter 1.1.1
log date: 2016-10-14 21:10:58

--------------------------------------------------------------------------------
Analyzed: Porcupine Tree / Coma Divine
--------------------------------------------------------------------------------

DR         Peak         RMS     Duration Track
--------------------------------------------------------------------------------
DR12     -11.07 dB   -28.59 dB      1:24 01-Bornlivedie (intro)
DR14      -1.52 dB   -16.92 dB      5:29 02-Signify
DR14      -4.14 dB   -20.63 dB      4:27 03-Waiting (Phase One)
DR13      -1.94 dB   -19.56 dB      5:29 04-Waiting (Phase Two)
DR14      -1.90 dB   -20.75 dB     12:51 05-The Sky Moves Sideways
DR14      -2.48 dB   -19.39 dB      6:38 06-Dislocated Day
DR14      -1.87 dB   -18.81 dB      5:21 07-The Sleep Of No Dreaming
DR13      -2.88 dB   -20.12 dB     11:46 08-Moonloop
DR13      -0.65 dB   -18.77 dB      7:41 09-Up The Downstair
DR14      -0.94 dB   -19.98 dB      5:56 10-The Moon Touches Your Shoulder
DR14      -2.09 dB   -20.34 dB      4:55 11-Always Never
DR14      -0.48 dB   -18.38 dB      6:09 12-IS...NOT
DR14      -1.64 dB   -21.36 dB     13:31 13-Radioactive Toy
DR13      -0.61 dB   -20.06 dB     10:16 14-Not Beautiful Anymore
--------------------------------------------------------------------------------

Number of tracks:  14
Official DR value: DR13

Samplerate:        192000 Hz
Channels:          2
Bits per sample:   24
Bitrate:           5135 kbps
Codec:             FLAC
================================================================================
Год издания: 2016
Продолжительноcть: 00:22:47
Трек лист:
01. Signify II (Secular Mix) (6:04)
02. Signify II (Religious Mix) (8:20)
03. The Sound Of No-One Listening (3:48)
04. Colourflow In Mind (1:09)
05. Fuse The Sky (3:26)
Код: выделить все

General
Complete name : I:\music collection\torrents\Porcupine Tree - 2016 - The Delerium Years 1994 - 1997\2016-Additional Material 1994-1997\Porcupine Tree - Additional Material 1994-1997.flac
Format : FLAC
Format/Info : Free Lossless Audio Codec
File size : 835 MiB
Duration : 22mn 47s
Overall bit rate mode : Variable
Overall bit rate : 5 120 Kbps
Album : Additional Material 1994-1997
Performer : Porcupine Tree
Producer : https://www.discogs.com/Porcupine-Tree-The-Delerium-Years-1994-1997/release/8088258
Genre : Progressive Rock
Recorded date : 2016
Cover : Yes
Cover type : Cover (front)
Cover MIME : image/jpeg
Comment : AT-OC9/III -> Yamaha GT-750 -> Lehmann Audio Black Cube SE -> Lynx L22 (интерконнекты Yamaha и Lynx).
CUESHEET : REM GENRE "Progressive Rock" / REM DATE 2016 / PERFORMER "Porcupine Tree" / TITLE "Additional Material 1994-1997" / FILE "Porcupine Tree - Additional Material 1994-1997.flac" WAVE / TRACK 01 AUDIO / TITLE "Signify II (Secular Mix)" / INDEX 01 00:00:00 / TRACK 02 AUDIO / TITLE "Signify II (Religious Mix)" / INDEX 01 06:03:59 / TRACK 03 AUDIO / TITLE "The Sound Of No-One Listening" / INDEX 01 14:23:49 / TRACK 04 AUDIO / TITLE "Colourflow In Mind" / INDEX 01 18:11:41 / TRACK 05 AUDIO / TITLE "Fuse The Sky" / INDEX 01 19:20:59

Audio
Format : FLAC
Format/Info : Free Lossless Audio Codec
Duration : 22mn 47s
Bit rate mode : Variable
Bit rate : 5 119 Kbps
Channel(s) : 2 channels
Channel positions : Front: L R
Sampling rate : 192 KHz
Bit depth : 24 bits
Stream size : 834 MiB (100%)
Writing library : libFLAC 1.3.0 (UTC 2013-05-26)
Код: выделить все

foobar2000 1.3.9 / Dynamic Range Meter 1.1.1
log date: 2016-10-14 21:25:36

--------------------------------------------------------------------------------
Analyzed: Porcupine Tree / Additional Material 1994-1997
--------------------------------------------------------------------------------

DR         Peak         RMS     Duration Track
--------------------------------------------------------------------------------
DR14      -0.11 dB   -16.99 dB      6:04 01-Signify II (Secular Mix)
DR14      -1.43 dB   -20.19 dB      8:20 02-Signify II (Religious Mix)
DR13      -3.06 dB   -21.19 dB      3:48 03-The Sound Of No-One Listening
DR11     -17.12 dB   -33.70 dB      1:09 04-Colourflow In Mind
DR11      -6.38 dB   -22.37 dB      3:26 05-Fuse The Sky
--------------------------------------------------------------------------------

Number of tracks:  5
Official DR value: DR12

Samplerate:        192000 Hz
Channels:          2
Bits per sample:   24
Bitrate:           5119 kbps
Codec:             FLAC
================================================================================
Треклист:
The Sky Moves Sideways (1995)
Signify (1996)
Come Divine (1997)
Additional Material (EP) (2016)

[NNMClub.to]_Porcupine Tree - 2016 - The Delerium Years 1994 - 1997.torrent
 Торрент: Золотая раздача  Зарегистрирован
 
Примагнититься
Free Leech
Зарегистрируйтесь и скачайте торрент!
25,6 KB
 Зарегистрирован:   15 Окт 2016 04:44:35
 Размер:   9,52 GB  (
 Рейтинг:   5 (Голосов: 11)
 Поблагодарили:   39
 Проверка:   Оформление проверено модератором 15 Окт 2016 06:50:14
Как cкачать  ·  Как раздать  ·  Правильно оформить  ·  Поднять ратио!  
Bigbeer
Модератор Музыки
RG Музыки
 
Стаж: 7 лет 2 мес.
Сообщений: 2916
Ratio: 114,603
Поблагодарили: 42140
100%
pirates.png
tegoffs
Раньше их не слышал, очень не плохо :клево:
tegoffs писал(а): Перейти к сообщению
Срез на спектре намекает

Но ни сколько не портит впечатления от прослушивания)

_________________
Исправили релиз напишите мне в ЛС со ссылкой на него.
tegoffs ®
Виниловод. Сталкер
Стаж: 8 лет 11 мес.
Сообщений: 2896
Ratio: 17,52
Поблагодарили: 8248
100%
Откуда: мне знать?
honduras.gif
Bigbeer
Я сам-то расслушал их не так чтобы сильно давно. Кстати, сольный Стивен Вилсон после Поркупайнов тоже очень здорово звучит.

А по поводу звука - Стивен Вилсон очень серьезно к этому относится, и у него все звучит замечательно, не смотря на срезы :)

_________________
It's only rock 'n' roll but I like it! (c) Jagger and Richards
Показать сообщения:   
Начать новую тему   Ответить на тему    Торрент-трекер NNM-Club -> HD Audio и Многоканальная Музыка -> Vinyl-Rip и Hand-Made Часовой пояс: GMT + 3
Страница 1 из 1