Интеллигентный торрент-трекер
canvas not supported
Нас вместе: 4 115 114

Drifters / Скитальцы [2016, TV, 9 из 12] WEB-DL 720p Raw+Rus


 
 
RSS
Начать новую тему   Ответить на тему    Торрент-трекер NNM-Club -> Аниме сериалы -> Аниме сериалы с русской озвучкой
Автор Сообщение
Ampho_DnB ®
RG Releasers
 
Стаж: 4 года 10 мес.
Сообщений: 3771
Ratio: 158,802
Поблагодарили: 56576
100%
Откуда: дует?
roody.gif
ドリフターズ / Drifters / Скитальцы
Жанр: приключения, комедия, история
Тип: TV-сериал
Продолжительность: 9 из 12 эпизодов по 25 минут
Выпуск: c 07.10.2016
Автор оригинала: Хирано Кота
Снято по манге: Drifters
Режиссер: Судзуки Кэнъити
Производство: Hoods Entertainment
Информационные ссылки: AniDB || World Art || MAL || ANN
Релиз подготовлен студией AniDub
  • Тип озвучки: Многоголосая, закадровая

Описание:
Тоёхиса Симадзу — легендарный самурай эпохи Сэнгоку — принимает участие в великой битве при Сэкигахаре. В неравной схватке с отрядом вражеского полководца по имени Наомаса Ии он получает тяжелое ранение. Истекающий кровью, Тоёхиса с трудом пытается уйти с поля боя, но, вдруг, неизвестным образом попадает в длинный коридор из дверей, где его ожидает человек в очках. Этого человека зовут Мурасаки. Он великодушно направляет едва живого Тоёхису к ближайшей двери, после чего раненный самурай теряет сознание и приходит в себя уже в другом месте... Нет, не на небесах, как можно было бы подумать, а в параллельном мире! Однако не успевает Симадзу отойти от шока перемещения, как его втягивают в другие, не менее великие, чем на Земле, войны. Здесь ему предстоит встретиться с подобными ему легендарными воинами, которым также представился шанс невольно переместиться в этот мир, и стать частью группировки, известной как «Скитальцы».
Качество: WEB-DLRip | Энкод: HorribleSubs
Формат: MKV
Видео: x264, 1280x720, ~1 776 kbps, 23.976 fps
Аудио: AAC, 128 kbps, 44.1 kHz, 2 ch
Аудио: AAC, 192 kbps, 48.0 kHz, 2 ch
Субтитры: ASS, Встроенные, Полные | Надписи
Переводчик: Nesitach | Редактор/Тайм-код/Оформление: Stan WarHammer

01. Боевая песнь
02. Шаги
03. Наша армия. Выступление на заре
04. Активное сердце
05. Верни любовь
06. Люди судьбы
07. Ныряльщик в хаос
08. Позови меня, загадка
09. Серьёзный бомбардир

10. Баба Йету
General
Unique ID : 199106986681211376394747395248009655961 (0x95CA9C5BFC97F2F9B1BC6CD29E563699)
Complete name : Drifters [AD Studio]\Drifters - 01 (1280x720 x264 AAC).mkv
Format : Matroska
Format version : Version 4 / Version 2
File size : 364 MiB
Duration : 23 min 39 s
Overall bit rate : 2 149 kb/s
Encoded date : UTC 2016-10-15 11:29:00
Writing application : mkvmerge v9.4.2 ('So High') 64bit
Writing library : libebml v1.3.4 + libmatroska v1.4.5
Attachments : birch.ttf / DCYoseMoji-W7_0.ttc / EurostileOT-Bold.otf / segoeprb_3.ttf / times.ttf / trebucbd.ttf

Video
ID : 1
Format : AVC
Format/Info : Advanced Video Codec
Format profile : High@L4
Format settings, CABAC : Yes
Format settings, ReFrames : 6 frames
Codec ID : V_MPEG4/ISO/AVC
Duration : 23 min 39 s
Bit rate : 1 776 kb/s
Width : 1 280 pixels
Height : 720 pixels
Display aspect ratio : 16:9
Frame rate mode : Constant
Frame rate : 23.976 (23976/1000) FPS
Color space : YUV
Chroma subsampling : 4:2:0
Bit depth : 8 bits
Scan type : Progressive
Bits/(Pixel*Frame) : 0.080
Stream size : 299 MiB (82%)
Writing library : x264 core 120 r2120 0c7dab9
Encoding settings : cabac=1 / ref=6 / deblock=1:1:1 / analyse=0x3:0x113 / me=umh / subme=8 / psy=1 / psy_rd=0.40:0.00 / mixed_ref=1 / me_range=16 / chroma_me=1 / trellis=1 / 8x8dct=1 / cqm=0 / deadzone=21,11 / fast_pskip=1 / chroma_qp_offset=-2 / threads=4 / sliced_threads=0 / nr=0 / decimate=1 / interlaced=0 / bluray_compat=0 / constrained_intra=0 / bframes=3 / b_pyramid=2 / b_adapt=2 / b_bias=0 / direct=3 / weightb=1 / open_gop=0 / weightp=2 / keyint=250 / keyint_min=23 / scenecut=40 / intra_refresh=0 / rc_lookahead=50 / rc=2pass / mbtree=1 / bitrate=1776 / ratetol=1.0 / qcomp=0.60 / qpmin=0 / qpmax=69 / qpstep=4 / cplxblur=20.0 / qblur=0.5 / vbv_maxrate=3552 / vbv_bufsize=8880 / nal_hrd=none / ip_ratio=1.40 / aq=1:0.60
Language : Japanese
Default : Yes
Forced : No

Audio #1
ID : 2
Format : AAC
Format/Info : Advanced Audio Codec
Format profile : LC
Codec ID : A_AAC
Duration : 23 min 39 s
Bit rate : 192 kb/s
Channel(s) : 2 channels
Channel positions : Front: L R
Sampling rate : 48.0 kHz
Frame rate : 46.875 FPS (1024 spf)
Compression mode : Lossy
Stream size : 32.5 MiB (9%)
Title : AD Studio
Language : Russian
Default : Yes
Forced : No

Audio #2
ID : 3
Format : AAC
Format/Info : Advanced Audio Codec
Format profile : LC
Codec ID : A_AAC
Duration : 23 min 39 s
Bit rate : 128 kb/s
Channel(s) : 2 channels
Channel positions : Front: L R
Sampling rate : 44.1 kHz
Frame rate : 43.066 FPS (1024 spf)
Compression mode : Lossy
Stream size : 21.7 MiB (6%)
Title : Original
Language : Japanese
Default : No
Forced : No

Text #1
ID : 4
Format : ASS
Codec ID : S_TEXT/ASS
Codec ID/Info : Advanced Sub Station Alpha
Duration : 23 min 36 s
Bit rate : 50 b/s
Count of elements : 52
Compression mode : Lossless
Stream size : 8.80 KiB (0%)
Title : Надписи
Language : Russian
Default : Yes
Forced : No

Text #2
ID : 5
Format : ASS
Codec ID : S_TEXT/ASS
Codec ID/Info : Advanced Sub Station Alpha
Duration : 23 min 36 s
Bit rate : 148 b/s
Count of elements : 313
Compression mode : Lossless
Stream size : 25.6 KiB (0%)
Title : Субтитры
Language : Russian
Default : No
Forced : No


Время раздачи: До первых сидов
[NNMClub.to]_Drifters [AD Studio].torrent
 Торрент:   Зарегистрирован
 
Примагнититься
Free Leech
Зарегистрируйтесь и скачайте торрент!
32 KB
 Зарегистрирован:   07 Дек 2016 09:17:49
 Размер:   3,12 GB  (
 Рейтинг:   4,8 (Голосов: 39)
 Поблагодарили:   158
 Проверка:   Оформление проверено модератором 07 Дек 2016 10:19:29
Как cкачать  ·  Как раздать  ·  Правильно оформить  ·  Поднять ратио!  


Последний раз редактировалось: Ampho_DnB (07 Дек 2016 09:17:27), всего редактировалось 8 раз(а)
Neko_nyaa
Стаж: 2 года 4 мес.
Сообщений: 2
Ratio: 1,736
26.95%
witch.png
Тоёхиса Симадзу похож на Алукарда аль, мне кажется?
Frel796
Стаж: 4 года 3 мес.
Сообщений: 12
Ratio: 10,514
Раздал: 3,73 TB
100%
roody.gif
Neko_nyaa писал(а): Перейти к сообщению
Тоёхиса Симадзу похож на Алукарда аль, мне кажется?

Тот же мангака рисовал.
Ampho_DnB ®
RG Releasers
 
Стаж: 4 года 10 мес.
Сообщений: 3771
Ratio: 158,802
Поблагодарили: 56576
100%
Откуда: дует?
roody.gif
Торрент обновлен. Добавлена 2 серия.
stas1q
Стаж: 2 года 4 мес.
Сообщений: 1
Ratio: 166,508
64.37%
Neko_nyaa писал(а): Перейти к сообщению
Тоёхиса Симадзу похож на Алукарда аль, мне кажется?

По мне, так он напоминает Юкимуру Санада
Ampho_DnB ®
RG Releasers
 
Стаж: 4 года 10 мес.
Сообщений: 3771
Ratio: 158,802
Поблагодарили: 56576
100%
Откуда: дует?
roody.gif
Торрент обновлен. Добавлена 3 серия.
Феникс
Uploader 100+
Стаж: 6 лет 10 мес.
Сообщений: 1999
Ratio: 1512,203
Раздал: 163,3 TB
100%
witch.png
Манга к слову адская.Если аниме такое же будет, это таки будет очень даже кошерно.
Ampho_DnB ®
RG Releasers
 
Стаж: 4 года 10 мес.
Сообщений: 3771
Ratio: 158,802
Поблагодарили: 56576
100%
Откуда: дует?
roody.gif
Торрент обновлен. Добавлена 4 серия.
Ampho_DnB ®
RG Releasers
 
Стаж: 4 года 10 мес.
Сообщений: 3771
Ratio: 158,802
Поблагодарили: 56576
100%
Откуда: дует?
roody.gif
Торрент обновлен. Добавлена 5 серия.
Ampho_DnB ®
RG Releasers
 
Стаж: 4 года 10 мес.
Сообщений: 3771
Ratio: 158,802
Поблагодарили: 56576
100%
Откуда: дует?
roody.gif
Торрент обновлен. Добавлена 6 серия.
gogo34
Стаж: 4 года
Сообщений: 26
Ratio: 2,594
83.33%
Спасиб
Ampho_DnB ®
RG Releasers
 
Стаж: 4 года 10 мес.
Сообщений: 3771
Ratio: 158,802
Поблагодарили: 56576
100%
Откуда: дует?
roody.gif
Торрент обновлен. Добавлена 7 серия.
Ampho_DnB ®
RG Releasers
 
Стаж: 4 года 10 мес.
Сообщений: 3771
Ratio: 158,802
Поблагодарили: 56576
100%
Откуда: дует?
roody.gif
Торрент обновлен. Добавлена 8 серия.
HansonTroy
Стаж: 3 года 4 мес.
Сообщений: 154
Ratio: 78,511
100%
Спасибо за новую серию, раньше не задумывался ,но уведомлялка о скачивании - реально удобно!
Ampho_DnB ®
RG Releasers
 
Стаж: 4 года 10 мес.
Сообщений: 3771
Ratio: 158,802
Поблагодарили: 56576
100%
Откуда: дует?
roody.gif
Торрент обновлен. Добавлена 9 серия.
Показать сообщения:   
Начать новую тему   Ответить на тему    Торрент-трекер NNM-Club -> Аниме сериалы -> Аниме сериалы с русской озвучкой Часовой пояс: GMT + 3
Страница 1 из 1