Интеллигентный торрент-трекер
canvas not supported
Нас вместе: 4 103 766

Сальный душитель / The Greasy Strangler (2016) BDRip [H.264/1080p] [EN]


 
 
RSS
Начать новую тему   Ответить на тему    Торрент-трекер NNM-Club -> Зарубежное кино -> Фильмы в оригинале (HD)
Автор Сообщение
smaster67 ®
Модератор Видео
Покровитель талантов Uploader 300+
Стаж: 7 лет 5 мес.
Сообщений: 6258
Ratio: 180,063
Поблагодарили: 173768
100%
Сальный душитель / The Greasy Strangler (2016) BDRip [H.264/1080p] [EN]

Жанр: ужасы, триллер, комедия

Режиссер: Джим Хоскин
Актеры: Майкл Ст. Майклс, Скай Элобар, Лиза Де Радзо, Абдулаи Нгом, Сэм Диссанайяке, Джо Уолтерс, Джон Йуан, Мэтт Йуан, Мэл Кол, Сэл Кусса

Описание:
Ронни вместе с сыном Брайденом владеют небольшим семейным предприятием – пешим туром по всем памятным дискотекам, диско баром и всем остальным культовым местам, связанных с эпохой диско, славного города Лос-Анджелес. Однажды соблазнительная незнакомка записывается для участия в туре и между сыном и отцом начинается бескомпромиссное состязание за симпатию женщины.
Отцу и сыну на двоих уже, наверное, лет сто тридцать, и обоих можно было бы сдать в кунсткамеру в назидание подрастающему поколению, как не должен выглядеть здоровый мужчина, однако когда на кону стоит соблазнительное женское тело, Ронни и Брайден готовы выложить на стол все свои козыри. Например, прикинуться печально знаменитым в городе убийцей по кличке Сальный душитель, чтобы посеять в душе красавицы страх и вожделение. Хотя, может быть, Сальный душитель это и есть Ронни. Или Брайден. Или же Сальный душитель – это вообще женщина?



Продолжительность: 01:33:19
Качество видео: BDRip 1080p
Перевод: Отсутствует
Язык озвучки: Английский

Видео: AVC, 1920x1040 (1.85:1), 9293 kbps, 24 fps, 0,194 bpp
Аудио: английский / DTS / 5.1 / 48 kHz / 768 kbps / 24 bit
Код: выделить все
General
Unique ID                                The Greasy Strangler.2016.1080p.mkv
Format                                   : Matroska
Format version                           : Version 4 / Version 2
File size                                : 6.56 GiB
Duration                                 : 1 h 33 min
Overall bit rate                         : 10.1 Mb/s
Encoded date                             : UTC 2016-10-15 02:28:56
Writing application                      : mkvmerge v8.3.0 ('Over the Horizon') 64bit
Writing library                          : libebml v1.3.1 + libmatroska v1.4.2

Video
ID                                       : 1
Format                                   : AVC
Format/Info                              : Advanced Video Codec
Format profile                           : High@L4.1
Format settings, CABAC                   : Yes
Format settings, ReFrames                : 4 frames
Codec ID                                 : V_MPEG4/ISO/AVC
Duration                                 : 1 h 33 min
Bit rate                                 : 9 293 kb/s
Width                                    : 1 920 pixels
Height                                   : 1 040 pixels
Display aspect ratio                     : 1.85:1
Frame rate mode                          : Constant
Frame rate                               : 24.000 FPS
Color space                              : YUV
Chroma subsampling                       : 4:2:0
Bit depth                                : 8 bits
Scan type                                : Progressive
Bits/(Pixel*Frame)                       : 0.194
Stream size                              : 6.06 GiB (92%)
Writing library                          : x264 core 148 r2705 3f5ed56
Encoding settings                        : cabac=1 / ref=4 / deblock=1:0:0 / analyse=0x3:0x133 / me=umh / subme=9 / psy=1 / psy_rd=1.00:0.00 / mixed_ref=1 / me_range=16 / chroma_me=1 / trellis=1 / 8x8dct=1 / cqm=0 / deadzone=21,11 / fast_pskip=0 / chroma_qp_offset=-2 / threads=18 / lookahead_threads=1 / sliced_threads=0 / nr=0 / decimate=1 / interlaced=0 / bluray_compat=0 / constrained_intra=0 / bframes=3 / b_pyramid=2 / b_adapt=2 / b_bias=0 / direct=3 / weightb=1 / open_gop=0 / weightp=2 / keyint=250 / keyint_min=24 / scenecut=40 / intra_refresh=0 / rc_lookahead=50 / rc=2pass / mbtree=1 / bitrate=9293 / ratetol=1.0 / qcomp=0.60 / qpmin=0 / qpmax=69 / qpstep=4 / cplxblur=20.0 / qblur=0.5 / ip_ratio=1.40 / aq=1:1.00
Language                                 : English
Default                                  : Yes
Forced                                   : No

Audio
ID                                       : 2
Format                                   : DTS
Format/Info                              : Digital Theater Systems
Mode                                     : 16
Format settings, Endianness              : Big
Codec ID                                 : A_DTS
Duration                                 : 1 h 33 min
Bit rate mode                            : Constant
Bit rate                                 : 768 kb/s
Channel(s)                               : 6 channels
Channel positions                        : Front: L C R, Side: L R, LFE
Sampling rate                            : 48.0 kHz
Frame rate                               : 93.750 FPS (512 spf)
Bit depth                                : 24 bits
Compression mode                         : Lossy
Stream size                              : 513 MiB (8%)
Language                                 : English
Default                                  : Yes
Forced                                   : No

Menu
00:00:00.000                             : en:00:00:00.000
00:13:17.000                             : en:00:13:17.000
00:25:23.625                             : en:00:25:23.625
00:34:59.292                             : en:00:34:59.292
00:48:26.417                             : en:00:48:26.417
01:04:42.667                             : en:01:04:42.667
01:12:27.958                             : en:01:12:27.958
01:22:51.333                             : en:01:22:51.333

Скриншоты:



Время раздачи: с 13:00 до 23:00
[NNMClub.to]_The Greasy Strangler.2016.1080p.mkv.torrent
 Торрент: Золотая раздача  Зарегистрирован
 
Примагнититься
Free Leech
Зарегистрируйтесь и скачайте торрент!
33 KB
 Зарегистрирован:   15 Окт 2016 17:28:42
 Размер:   6,56 GB  (
 Рейтинг:    (Голосов: 6)
 Поблагодарили:   28
 Проверка:   Оформление проверено модератором 15 Окт 2016 17:29:21
Как cкачать  ·  Как раздать  ·  Правильно оформить  ·  Поднять ратио!  
Показать сообщения:   
Начать новую тему   Ответить на тему    Торрент-трекер NNM-Club -> Зарубежное кино -> Фильмы в оригинале (HD) Часовой пояс: GMT + 3
Страница 1 из 1