Интеллигентный торрент-трекер
canvas not supported
Нас вместе: 4 103 208

И гаснет свет... / Lights Out (2016) BDRemux [H.264/1080p] [EN / EN, Fr, Sp, Po Sub]


 
 
RSS
Начать новую тему   Ответить на тему    Торрент-трекер NNM-Club -> Зарубежное кино -> Фильмы в оригинале (HD)
Автор Сообщение
smaster67 ®
Модератор Видео
Покровитель талантов Uploader 300+
Стаж: 7 лет 5 мес.
Сообщений: 6255
Ratio: 180,048
Поблагодарили: 173720
100%
И гаснет свет... / Lights Out (2016) BDRemux [H.264/1080p] [EN / EN, Fr, Sp, Po Sub]

Производство: США
Жанр: ужасы, триллер

Режиссер: Дэвид Ф. Сандберг
Актеры: Тереза Палмер, Гэбриел Бейтман, Александр ДиПерсиа, Билли Бёрк, Мария Белло, Алисия Вела-Бэйли, Энди Ошо, Роландо Бойс, Мария Расселл, Элизабет Пан, Лотта Лостен, Амья Миллер

Описание:
Когда Ребекка покинула родной дом, она думала, что её детские страхи остались позади. Ребенком она никогда не была уверена, что реально, а что нет, когда гас свет, и теперь её младший брат Мартин переживает те же необъяснимые и ужасные события, которые когда-то испытывали на прочность её рассудок и угрожали её безопасности. Пугающее нечто, таинственным образом привязанное к их матери Софи, появилось вновь. Но на этот раз Ребекка подбирается к разгадке истины, и уже не остается сомнений в том, что их жизни в опасности, как только будет погашен свет.



Продолжительность: 01:20:57
Качество видео: BDRemux
Перевод: Отсутствует
Язык озвучки: Английский
Язык субтитров: английский, французский, испанский, португальский
Вид субтитров: Вшитые

Видео: AVC, 1920x1080 (16:9), 32445 kbps, 23,976 fps, 0,653 bpp
Аудио: английский / DTS-HD / 5.1 / 48 kHz / 3476 kbps / 24 bit (Core: 5.1 / 48 kHz / 1509 kbps / 24 bit)
Код: выделить все
General
Unique ID                            Lights.Out.2016.BluRay.1080p.DTS-HD.MA.5.1.AVC.REMUX-FraMeSToR\Lights.Out.2016.BluRay.1080p.DTS-HD.MA.5.1.AVC.REMUX-FraMeSToR.mkv
Format                                   : Matroska
Format version                           : Version 4 / Version 2
File size                                : 20.4 GiB
Duration                                 : 1 h 20 min
Overall bit rate mode                    : Variable
Overall bit rate                         : 36.0 Mb/s
Movie name                               : Lights Out
Encoded date                             : UTC 2016-10-15 03:30:35
Writing application                      : mkvmerge v9.4.2 ('So High') 64bit
Writing library                          : libebml v1.3.4 + libmatroska v1.4.5

Video
ID                                       : 1
Format                                   : AVC
Format/Info                              : Advanced Video Codec
Format profile                           : High@L4.1
Format settings, CABAC                   : Yes
Format settings, ReFrames                : 4 frames
Codec ID                                 : V_MPEG4/ISO/AVC
Duration                                 : 1 h 20 min
Bit rate mode                            : Variable
Bit rate                                 : 32.4 Mb/s
Maximum bit rate                         : 35.0 Mb/s
Width                                    : 1 920 pixels
Height                                   : 1 080 pixels
Display aspect ratio                     : 16:9
Frame rate mode                          : Constant
Frame rate                               : 23.976 (24000/1001) FPS
Color space                              : YUV
Chroma subsampling                       : 4:2:0
Bit depth                                : 8 bits
Scan type                                : Progressive
Bits/(Pixel*Frame)                       : 0.653
Stream size                              : 18.3 GiB (90%)
Default                                  : Yes
Forced                                   : No

Audio
ID                                       : 2
Format                                   : DTS
Format/Info                              : Digital Theater Systems
Format profile                           : MA / Core
Mode                                     : 16
Format settings, Endianness              : Big
Codec ID                                 : A_DTS
Duration                                 : 1 h 20 min
Bit rate mode                            : Variable / Constant
Bit rate                                 : 3 477 kb/s / 1 509 kb/s
Channel(s)                               : 6 channels
Channel positions                        : Front: L C R, Side: L R, LFE
Sampling rate                            : 48.0 kHz
Frame rate                               : 93.750 FPS (512 spf)
Bit depth                                : 24 bits
Compression mode                         : Lossless / Lossy
Stream size                              : 1.97 GiB (10%)
Title                                    : DTS-HD MA 5.1
Language                                 : English
Default                                  : Yes
Forced                                   : No

Text #1
ID                                       : 3
Format                                   : PGS
Codec ID                                 : S_HDMV/PGS
Codec ID/Info                            : Picture based subtitle format used on BDs/HD-DVDs
Duration                                 : 1 h 20 min
Bit rate                                 : 25.6 kb/s
Count of elements                        : 1932
Stream size                              : 14.6 MiB (0%)
Title                                    : English (SDH)
Language                                 : English
Default                                  : Yes
Forced                                   : No

Text #2
ID                                       : 4
Format                                   : PGS
Codec ID                                 : S_HDMV/PGS
Codec ID/Info                            : Picture based subtitle format used on BDs/HD-DVDs
Duration                                 : 1 h 19 min
Bit rate                                 : 20.9 kb/s
Count of elements                        : 1632
Stream size                              : 11.9 MiB (0%)
Title                                    : French
Language                                 : French
Default                                  : No
Forced                                   : No

Text #3
ID                                       : 5
Format                                   : PGS
Codec ID                                 : S_HDMV/PGS
Codec ID/Info                            : Picture based subtitle format used on BDs/HD-DVDs
Duration                                 : 1 h 19 min
Bit rate                                 : 19.7 kb/s
Count of elements                        : 1642
Stream size                              : 11.2 MiB (0%)
Title                                    : Spanish (Latin American)
Language                                 : Spanish
Default                                  : No
Forced                                   : No

Text #4
ID                                       : 6
Format                                   : PGS
Codec ID                                 : S_HDMV/PGS
Codec ID/Info                            : Picture based subtitle format used on BDs/HD-DVDs
Duration                                 : 1 h 19 min
Bit rate                                 : 20.4 kb/s
Count of elements                        : 1628
Stream size                              : 11.7 MiB (0%)
Title                                    : Portuguese (Brazilian)
Language                                 : Portuguese
Default                                  : No
Forced                                   : No

Menu
00:00:00.000                             : en:Chapter 1
00:10:01.559                             : en:Chapter 2
00:21:07.349                             : en:Chapter 3
00:30:12.936                             : en:Chapter 4
00:40:57.663                             : en:Chapter 5
00:50:38.285                             : en:Chapter 6
00:58:43.603                             : en:Chapter 7
01:09:54.190                             : en:Chapter 8
01:16:21.285                             : en:Chapter 9

Скриншоты:



Время раздачи: с 13:00 до 23:00
[NNMClub.to]_Lights.Out.2016.BluRay.1080p.DTS-HD.MA.5.1.AVC.REMUX-FraMeSToR.mkv.torrent
 Торрент: Золотая раздача  Зарегистрирован
 
Примагнититься
Free Leech
Зарегистрируйтесь и скачайте торрент!
102 KB
 Зарегистрирован:   15 Окт 2016 18:51:57
 Размер:   20,4 GB  (
 Рейтинг:    (Голосов: 6)
 Поблагодарили:   25
 Проверка:   Оформление проверено модератором 15 Окт 2016 18:52:30
Как cкачать  ·  Как раздать  ·  Правильно оформить  ·  Поднять ратио!  
Показать сообщения:   
Начать новую тему   Ответить на тему    Торрент-трекер NNM-Club -> Зарубежное кино -> Фильмы в оригинале (HD) Часовой пояс: GMT + 3
Страница 1 из 1