Интеллигентный торрент-трекер
canvas not supported
Нас вместе: 4 100 981

Отпетые напарники / По следу / Jue di tao wang / Skiptrace (2016) BDRemux [H.264/1080p] [EN / EN, Sp Sub]


 
 
RSS
Начать новую тему   Ответить на тему    Торрент-трекер NNM-Club -> Зарубежное кино -> Фильмы в оригинале (HD)
Автор Сообщение
smaster67 ®
Модератор Видео
Покровитель талантов Uploader 300+
Стаж: 7 лет 5 мес.
Сообщений: 6251
Ratio: 179,944
Поблагодарили: 173540
100%
Отпетые напарники / По следу / Jue di tao wang / Skiptrace (2016) BDRemux [H.264/1080p] [EN / EN, Sp Sub]

Производство: Китай, Гонконг, США
Жанр: боевик, комедия

Режиссер: Ренни Харлин
Актеры: Джеки Чан, Джонни Ноксвил, Бинбин Фань, Эрик Цан, Ив Торрес, Уинстон Чао, Майкл Вонг, Ланьсинь Чжан, Джоэль Адриан, Пьер Бурдо

Описание:
Саманта, крестница честного полицейского Бенни, попадает в неприятности и оказывается в руках у преступного синдиката. Во главе этой преступной группировки стоит человек, за которым Бенни следил около десяти лет. Чтобы спасти Саманту, копу нужно поймать американского шулера и обменять его на девушку.



Продолжительность: 01:47:42
Качество видео: BDRemux
Перевод: Отсутствует
Язык озвучки: Английский
Язык субтитров: английский, испанский
Вид субтитров: Вшитые

Видео: AVC, 1920x1080 (16:9), 17870 kbps, 23,976 fps, 0,359 bpp
Аудио №1: английский / DTS-HD / 5.1 / 48 kHz / 4188 kbps / 24 bit (Core: 5.1 / 48 kHz / 1509 kbps / 24 bit)
Аудио №2: английский / AC3 / 2.0 / 48 kHz / 192 kbps /
Код: выделить все
General
Unique ID                            Skiptrace.2016.BluRay.1080p.DTS-HD.MA.5.1.AVC.REMUX-FraMeSToR\Skiptrace.2016.BluRay.1080p.DTS-HD.MA.5.1.AVC.REMUX-FraMeSToR.mkv
Format                                   : Matroska
Format version                           : Version 4 / Version 2
File size                                : 16.8 GiB
Duration                                 : 1 h 47 min
Overall bit rate mode                    : Variable
Overall bit rate                         : 22.3 Mb/s
Movie name                               : Skiptrace
Encoded date                             : UTC 2016-10-15 04:06:18
Writing application                      : mkvmerge v9.4.2 ('So High') 64bit
Writing library                          : libebml v1.3.4 + libmatroska v1.4.5

Video
ID                                       : 1
Format                                   : AVC
Format/Info                              : Advanced Video Codec
Format profile                           : High@L4.1
Format settings, CABAC                   : Yes
Format settings, ReFrames                : 4 frames
Codec ID                                 : V_MPEG4/ISO/AVC
Duration                                 : 1 h 47 min
Bit rate mode                            : Variable
Bit rate                                 : 17.9 Mb/s
Maximum bit rate                         : 35.0 Mb/s
Width                                    : 1 920 pixels
Height                                   : 1 080 pixels
Display aspect ratio                     : 16:9
Frame rate mode                          : Constant
Frame rate                               : 23.976 (23976/1000) FPS
Original frame rate                      : 23.976 (24000/1001) FPS
Color space                              : YUV
Chroma subsampling                       : 4:2:0
Bit depth                                : 8 bits
Scan type                                : Progressive
Bits/(Pixel*Frame)                       : 0.359
Stream size                              : 13.4 GiB (80%)
Default                                  : Yes
Forced                                   : No

Audio #1
ID                                       : 2
Format                                   : DTS
Format/Info                              : Digital Theater Systems
Format profile                           : MA / Core
Mode                                     : 16
Format settings, Endianness              : Big
Codec ID                                 : A_DTS
Duration                                 : 1 h 47 min
Bit rate mode                            : Variable / Constant
Bit rate                                 : 4 188 kb/s / 1 509 kb/s
Channel(s)                               : 6 channels
Channel positions                        : Front: L C R, Side: L R, LFE
Sampling rate                            : 48.0 kHz
Frame rate                               : 93.750 FPS (512 spf)
Bit depth                                : 24 bits
Compression mode                         : Lossless / Lossy
Stream size                              : 3.15 GiB (19%)
Title                                    : DTS-HD MA 5.1
Language                                 : English
Default                                  : Yes
Forced                                   : No

Audio #2
ID                                       : 3
Format                                   : AC-3
Format/Info                              : Audio Coding 3
Format profile                           : Dolby Digital
Mode extension                           : CM (complete main)
Format settings, Endianness              : Big
Codec ID                                 : A_AC3
Duration                                 : 1 h 47 min
Bit rate mode                            : Constant
Bit rate                                 : 192 kb/s
Channel(s)                               : 2 channels
Channel positions                        : Front: L R
Sampling rate                            : 48.0 kHz
Frame rate                               : 31.250 FPS (1536 spf)
Compression mode                         : Lossy
Stream size                              : 148 MiB (1%)
Title                                    : Commentary by Director Renny Harlin
Language                                 : English
Default                                  : No
Forced                                   : No

Text #1
ID                                       : 4
Format                                   : PGS
Codec ID                                 : S_HDMV/PGS
Codec ID/Info                            : Picture based subtitle format used on BDs/HD-DVDs
Duration                                 : 1 h 42 min
Bit rate                                 : 20.0 kb/s
Count of elements                        : 2224
Stream size                              : 14.6 MiB (0%)
Title                                    : English
Language                                 : English
Default                                  : Yes
Forced                                   : No

Text #2
ID                                       : 5
Format                                   : PGS
Codec ID                                 : S_HDMV/PGS
Codec ID/Info                            : Picture based subtitle format used on BDs/HD-DVDs
Duration                                 : 1 h 46 min
Bit rate                                 : 24.7 kb/s
Count of elements                        : 2874
Stream size                              : 18.8 MiB (0%)
Title                                    : English (SDH)
Language                                 : English
Default                                  : No
Forced                                   : No

Text #3
ID                                       : 6
Format                                   : PGS
Codec ID                                 : S_HDMV/PGS
Codec ID/Info                            : Picture based subtitle format used on BDs/HD-DVDs
Duration                                 : 1 h 44 min
Bit rate                                 : 24.5 kb/s
Count of elements                        : 2412
Stream size                              : 18.4 MiB (0%)
Title                                    : Spanish (Latin American)
Language                                 : Spanish
Default                                  : No
Forced                                   : No

Menu
00:00:00.000                             : en:Chapter 1
00:06:04.989                             : en:Chapter 2
00:13:12.958                             : en:Chapter 3
00:20:20.802                             : en:Chapter 4
00:27:23.767                             : en:Chapter 5
00:34:51.506                             : en:Chapter 6
00:43:05.082                             : en:Chapter 7
00:49:09.279                             : en:Chapter 8
00:55:45.508                             : en:Chapter 9
01:04:06.342                             : en:Chapter 10
01:09:07.601                             : en:Chapter 11
01:15:53.632                             : en:Chapter 12
01:23:22.997                             : en:Chapter 13
01:30:19.330                             : en:Chapter 14
01:39:44.144                             : en:Chapter 15
01:43:30.746                             : en:Chapter 16

Скриншоты:



Время раздачи: с 13:00 до 23:00
[NNMClub.to]_Skiptrace.2016.BluRay.1080p.DTS-HD.MA.5.1.AVC.REMUX-FraMeSToR.mkv.torrent
 Торрент: Золотая раздача  Зарегистрирован
 
Примагнититься
Free Leech
Зарегистрируйтесь и скачайте торрент!
84,2 KB
 Зарегистрирован:   15 Окт 2016 20:22:31
 Размер:   16,8 GB  (
 Рейтинг:    (Голосов: 4)
 Поблагодарили:   30
 Проверка:   Оформление проверено модератором 15 Окт 2016 20:23:58
Как cкачать  ·  Как раздать  ·  Правильно оформить  ·  Поднять ратио!  
ier2007
Стаж: 5 лет 9 мес.
Сообщений: 49
Ratio: 7,17
81%
russia.gif
не лучший фильм джеки чана.кинчик на разок
Показать сообщения:   
Начать новую тему   Ответить на тему    Торрент-трекер NNM-Club -> Зарубежное кино -> Фильмы в оригинале (HD) Часовой пояс: GMT + 3
Страница 1 из 1