Интеллигентный торрент-трекер
canvas not supported
Нас вместе: 4 110 277

Нерв / Nerve (2016) BDRemux [H.264/1080p] [EN / EN, Sp Sub]


 
 
RSS
Начать новую тему   Ответить на тему    Торрент-трекер NNM-Club -> Зарубежное кино -> Фильмы в оригинале (HD)
Автор Сообщение
smaster67 ®
Модератор Видео
Покровитель талантов Uploader 300+
Стаж: 7 лет 5 мес.
Сообщений: 6270
Ratio: 180,61
Поблагодарили: 174231
100%
Нерв / Nerve (2016) BDRemux [H.264/1080p] [EN / EN, Sp Sub]

Производство: США, Гонконг
Жанр: триллер, криминал, приключения

Режиссер: Генри Джуст , Эриель Шульман
Актеры: Эмма Робертс, Дэйв Франко, Эмили Мид, Майлс Хейзер, Кимико Гленн, Марк Джон Джеффрис, Машин Ган Келли, Брайан «Сене» Марк, Эд Сквайр, Райтор Дойл, Джульетт Льюис

Описание:
Поддавшись на уговоры одноклассниц, тихоня Ви открывает для себя мир популярной онлайн-игры «Нерв», где участники выполняют задания разной степени сложности, которые придумывают для них другие пользователи. В случае успеха игроки получают очень неплохие деньги. Ви проявляет неожиданную для самой себя смелость и отсутствие комплексов, и в очередном раунде знакомится с парнем по имени Иэн. Красивая пара нравится зрителям игры, и они решают, что следующие задания Ви и Иэн должны выполнять только вместе. Ставки растут, задания становятся все опаснее, и Ви постепенно понимает, что выйти из игры по собственной воле не получится. Те, кто считают себя игроками, на самом деле всего лишь пешки в руках таинственного сообщества Наблюдателей. И никто из участников игры не знает, какое задание станет следующим - или последним.



Продолжительность: 01:36:18
Качество видео: BDRemux
Перевод: Отсутствует
Язык озвучки: Английский
Язык субтитров: английский, испанский
Вид субтитров: Вшитые

Видео: AVC, 1920x1080 (16:9), 32505 kbps, 23,976 fps, 0,654 bpp
Аудио: DTS-HD / 7.1 / 6051 kbps / 48.0 kHz / 24 bits
Код: выделить все
General
Unique ID                           Nerve.2016.REMUX.BluRay.1080p.AVC.DTS-HD.MA7.1-iFT\Nerve.2016.REMUX.BluRay.1080p.AVC.DTS-HD.MA7.1-iFT.mkv
Format                                   : Matroska
Format version                           : Version 4 / Version 2
File size                                : 26.0 GiB
Duration                                 : 1 h 36 min
Overall bit rate mode                    : Variable
Overall bit rate                         : 38.6 Mb/s
Encoded date                             : UTC 2016-10-15 16:22:08
Writing application                      : mkvmerge v8.5.1 ('Where you lead I will follow') 64bit
Writing library                          : libebml v1.3.3 + libmatroska v1.4.4

Video
ID                                       : 1
Format                                   : AVC
Format/Info                              : Advanced Video Codec
Format profile                           : High@L4.1
Format settings, CABAC                   : Yes
Format settings, ReFrames                : 4 frames
Codec ID                                 : V_MPEG4/ISO/AVC
Duration                                 : 1 h 36 min
Bit rate mode                            : Variable
Bit rate                                 : 32.5 Mb/s
Maximum bit rate                         : 34.5 Mb/s
Width                                    : 1 920 pixels
Height                                   : 1 080 pixels
Display aspect ratio                     : 16:9
Frame rate mode                          : Constant
Frame rate                               : 23.976 (24000/1001) FPS
Color space                              : YUV
Chroma subsampling                       : 4:2:0
Bit depth                                : 8 bits
Scan type                                : Progressive
Bits/(Pixel*Frame)                       : 0.654
Stream size                              : 21.9 GiB (84%)
Default                                  : No
Forced                                   : No

Audio
ID                                       : 2
Format                                   : DTS
Format/Info                              : Digital Theater Systems
Format profile                           : X / MA / Core
Mode                                     : 16
Format settings, Endianness              : Big
Codec ID                                 : A_DTS
Duration                                 : 1 h 36 min
Bit rate mode                            : Variable / Variable / Constant
Bit rate                                 : 6 052 kb/s / 6 052 kb/s / 1 509 kb/s
Channel(s)                               : Object Based / 8 channels / 6 channels
Channel positions                        : Object Based / Front: L C R, Side: L R, Back: L R, LFE / Front: L C R, Side: L R, LFE
Sampling rate                            :  / 48.0 kHz / 48.0 kHz
Frame rate                               : 93.750 FPS (512 spf)
Bit depth                                :  / 24 bits / 24 bits
Compression mode                         :  / Lossless / Lossy
Stream size                              : 4.07 GiB (16%)
Default                                  : Yes
Forced                                   : No

Text #1
ID                                       : 3
Format                                   : PGS
Muxing mode                              : zlib
Codec ID                                 : S_HDMV/PGS
Codec ID/Info                            : Picture based subtitle format used on BDs/HD-DVDs
Duration                                 : 1 h 26 min
Bit rate                                 : 14.8 kb/s
Count of elements                        : 2136
Stream size                              : 9.19 MiB (0%)
Language                                 : English
Default                                  : Yes
Forced                                   : No

Text #2
ID                                       : 4
Format                                   : PGS
Muxing mode                              : zlib
Codec ID                                 : S_HDMV/PGS
Codec ID/Info                            : Picture based subtitle format used on BDs/HD-DVDs
Duration                                 : 1 h 27 min
Bit rate                                 : 16.0 kb/s
Count of elements                        : 2388
Stream size                              : 10.1 MiB (0%)
Language                                 : English
Default                                  : No
Forced                                   : No

Text #3
ID                                       : 5
Format                                   : PGS
Muxing mode                              : zlib
Codec ID                                 : S_HDMV/PGS
Codec ID/Info                            : Picture based subtitle format used on BDs/HD-DVDs
Duration                                 : 1 h 27 min
Bit rate                                 : 15.6 kb/s
Count of elements                        : 2680
Stream size                              : 9.79 MiB (0%)
Language                                 : Norwegian
Default                                  : No
Forced                                   : No

Menu
00:00:00.000                             : en:00:00:00.000
00:05:14.189                             : en:00:05:14.189
00:13:43.406                             : en:00:13:43.406
00:20:40.239                             : en:00:20:40.239
00:28:42.304                             : en:00:28:42.304
00:33:27.088                             : en:00:33:27.088
00:38:34.437                             : en:00:38:34.437
00:43:36.405                             : en:00:43:36.405
00:49:17.872                             : en:00:49:17.872
00:53:07.643                             : en:00:53:07.643
00:58:18.578                             : en:00:58:18.578
01:05:59.330                             : en:01:05:59.330
01:10:17.338                             : en:01:10:17.338
01:14:40.643                             : en:01:14:40.643
01:19:07.868                             : en:01:19:07.868
01:27:20.860                             : en:01:27:20.860

Скриншоты:



Время раздачи: с 13:00 до 23:00
[NNMClub.to]_Nerve.2016.REMUX.BluRay.1080p.AVC.DTS-HD.MA7.1-iFT.mkv.torrent
 Торрент: Золотая раздача  Зарегистрирован
 
Примагнититься
Free Leech
Зарегистрируйтесь и скачайте торрент!
130 KB
 Зарегистрирован:   15 Окт 2016 21:40:08
 Размер:   26 GB  (
 Рейтинг:   5 (Голосов: 10)
 Поблагодарили:   59
 Проверка:   Оформление проверено модератором 15 Окт 2016 21:40:47
Как cкачать  ·  Как раздать  ·  Правильно оформить  ·  Поднять ратио!  
Показать сообщения:   
Начать новую тему   Ответить на тему    Торрент-трекер NNM-Club -> Зарубежное кино -> Фильмы в оригинале (HD) Часовой пояс: GMT + 3
Страница 1 из 1