Интеллигентный торрент-трекер
canvas not supported
Нас вместе: 4 118 569

Ah Cama-Sotz - Discography 17 Releases (1997-2015) [FLAC|Lossless|tracks+.cue, tracks] <Dark Ambient, Experimental, Tribal, Industrial>


 
 
RSS
Начать новую тему   Ответить на тему    Торрент-трекер NNM-Club -> Electronic -> Experimental, Industrial, EBM, Dark Electro (Lossless)
Автор Сообщение
vilator ®
Модератор Музыки
RG Музыки
 
Стаж: 7 лет 7 мес.
Сообщений: 5415
Ratio: 117,86
Поблагодарили: 104267
100%
Откуда: Minsk
pirates.png
Ah Cama-Sotz Discography

Бельгиец Херман Клапхольц (Herman Klapholz) с самого детства увлекался всевозможной музыкой, преимущественно классической. Это привело к тому, что он стал ди-джеем в различных клубах Антверпена. С 1987 года он начинает собственные композиторские эксперименты, и через пару лет завязывает знакомства с людьми с альтернативного радио, которые занимались преимущественно экспериментальной музыкой. Это повлияло на стилистический выбор Хермана - его музыка становится все более ритуальной и эмбиентной. Херман всегда интересовался историей и мифологией человечества. В начале девяностых он едет в Мехико, чтобы немного лучше узнать о древней культуре ацтеков и майя. Отсюда появился его сценический псевдоним - на языке одного из древних народов центральной Америки, Киче, слово "came" переводится как "смерть", "dzotz" - "летучая мышь". Ah Cama-Sotz буквально означает: "демон-летучая мышь, падающий с небес, чтобы забрать чью-то голову".
Жанр: Dark Ambient, Experimental, Tribal, Industrial, Ambient • Страна: Belgium • Год издания: 1997-2015 • Тип издания: CD, Vinyl
Аудиокодек: FLAC (*.flac) | Тип рипа: tracks+.cue, tracks • Продолжительность: 16:46:03 • Источник: What • Наличие сканов: Нет
Треклист:
Год выпуска: 1997
Продолжительность: 01:12:39
Треклист:

01. Lustt (06:24)
02. Confession (05:36)
03. Istayul (Live In Leipzig) (07:53)
04. Le Lieu Maudit (06:34)
05. Hecate's Psy (Original Long Version) (18:57)
06. Huracan (Part II) (05:18)
07. Black Mist (07:33)
08. Exxtrrminate (04:08)
09. Deo Gratias (05:12)
10. Bewegung Faktor M (Live In Leipzig) (05:04)

-----------------------

DON'T MODIFY THIS FILE

-----------------------

PERFORMER: auCDtect Task Manager, ver. 1.5.1RC6 build 1.5.1.7
Copyright (c) 2008-2010 y-soft. All rights reserved
http://y-soft.org

ANALYZER: auCDtect: CD records authenticity detector, version 0.8.2
Copyright (c) 2004 Oleg Berngardt. All rights reserved.
Copyright (c) 2004 Alexander Djourik. All rights reserved.

FILE: 10. Bewegung Faktor M (Live In Leipzig).flac
Size: 31330446 Hash: D7A82EBD2BFBBCE703BF580F8ED6A5CC Accuracy: -m0
Conclusion: CDDA 100%
Signature: B043FF7013B077E98A557A9828EC4181D6549785
FILE: 09. Deo Gratias.flac
Size: 34101319 Hash: 1DA129474ED77E9F4AEE866D96F6B721 Accuracy: -m0
Conclusion: CDDA 100%
Signature: 1FAA29CE0A1F0A122DFFCD4598EFFE5250D8A58B
FILE: 08. Exxtrrminate.flac
Size: 25973296 Hash: 4F4DFCA7B0CFC3A1AE46E1C44C1730F4 Accuracy: -m0
Conclusion: CDDA 100%
Signature: FF3908A4C8350E6FA50805D8AF1E41E8BBCE32AA
FILE: 07. Black Mist.flac
Size: 42117788 Hash: F0DAA71E9E34A55E5AFB15B20B356BAF Accuracy: -m0
Conclusion: CDDA 100%
Signature: B7300DD1C20972B247106BCD272931CE88A07638
FILE: 06. Huracan (Part II).flac
Size: 25662766 Hash: ECF569F5149CA413BF9B109742623A5E Accuracy: -m0
Conclusion: CDDA 43%
Signature: 3C18D14E715BD16A0546AB911D355C488C38A7B9
FILE: 05. Hecate's Psy (Original Long Version).flac
Size: 88414543 Hash: EBE298D09063865848D0196E949CF759 Accuracy: -m0
Conclusion: CDDA 100%
Signature: 3541C3CAB8E6069DC04DA6D210CBCCB6E8C1979E
FILE: 04. Le Lieu Maudit.flac
Size: 38352787 Hash: 1B8F858712A286E5790EFECEE1BBB2A9 Accuracy: -m0
Conclusion: CDDA 100%
Signature: 646D5AE5E247807624FB428A0507CE1897562F84
FILE: 03. Istayul (Live In Leipzig).flac
Size: 46002724 Hash: 2D8D0694651028174D72CC1F81D03813 Accuracy: -m0
Conclusion: CDDA 100%
Signature: 3E6DE5EAC82378050DC32077488669D6FEAE282E
FILE: 02. Confession.flac
Size: 28749570 Hash: D2C02500FF24D42775D314AA19F88473 Accuracy: -m0
Conclusion: CDDA 100%
Signature: A3847272084066939EAF75C2149567D83C7FC85D
FILE: 01. Lustt.flac
Size: 36353989 Hash: C39449BB65D1B1DEA0C904DF525B47B8 Accuracy: -m0
Conclusion: CDDA 100%
Signature: F05342E3AB9EDC021D81BE9A662E454D321F3E53

Год выпуска: 1999
Продолжительность: 00:42:26+01:02:56
Треклист:

CD1 Murder Themes
01. First Theme - Prologue (07:23)
02. Second Theme - Killing For Fantasy (05:08)
03. Third Theme - Damnation (07:40)
04. Fourth Theme - Hungry For More / Search And Destroy (06:40)
05. Fifth Theme - Gates Of Hell (07:18)
06. Sixth Theme - Funeral (03:34)
07. Seventh Theme - Chimaera (04:43)

CD2 Terra Infernalis
01. Ce Carnage Demoniaque (11:05)
02. Rite And Belief (06:38)
03. Look For Graves With Holes In Them (L'ame Du Crime Remix) (04:21)
04. Narbukh (05:34)
05. Empty Souls (08:54)
06. Vio-lence And Vivi-section (06:12)
07. Look For Graves With Holes In Them (06:35)
08. None Of This Is True (04:35)
09. Ill-lektrik (04:40)
10. Zostrah (04:22)

Exact Audio Copy V1.0 beta 3 from 29. August 2011

EAC extraction logfile from 30. September 2012, 23:09

Ah Cama-Sotz / Murder Themes

Used drive : TEAC CD-W540E Adapter: 1 ID: 1

Read mode : Secure
Utilize accurate stream : Yes
Defeat audio cache : Yes
Make use of C2 pointers : No

Read offset correction : 686
Overread into Lead-In and Lead-Out : No
Fill up missing offset samples with silence : Yes
Delete leading and trailing silent blocks : No
Null samples used in CRC calculations : Yes
Used interface : Native Win32 interface for Win NT & 2000
Gap handling : Appended to previous track

Used output format : Internal WAV Routines
Sample format : 44.100 Hz; 16 Bit; Stereo

TOC of the extracted CD

Track | Start | Length | Start sector | End sector
---------------------------------------------------------
1 | 0:00.00 | 7:22.56 | 0 | 33205
2 | 7:22.56 | 5:07.63 | 33206 | 56293
3 | 12:30.44 | 7:39.65 | 56294 | 90783
4 | 20:10.34 | 6:40.29 | 90784 | 120812
5 | 26:50.63 | 7:17.47 | 120813 | 153634
6 | 34:08.35 | 3:33.67 | 153635 | 169676
7 | 37:42.27 | 4:43.29 | 169677 | 190930

Track 1

Filename F:\tmp\Ah Cama-Sotz 1999\Murder Themes\01. First Theme . Prologue.wav

Pre-gap length 0:00:02.00

Peak level 100.0 %
Extraction speed 5.6 X
Track quality 100.0 %
Test CRC 600C8269
Copy CRC 600C8269
Track not present in AccurateRip database
Copy OK

Track 2

Filename F:\tmp\Ah Cama-Sotz 1999\Murder Themes\02. Second Theme - Killing for Fantasy.wav

Pre-gap length 0:00:02.00

Peak level 91.4 %
Extraction speed 6.2 X
Track quality 100.0 %
Test CRC 0E7B4448
Copy CRC 0E7B4448
Track not present in AccurateRip database
Copy OK

Track 3

Filename F:\tmp\Ah Cama-Sotz 1999\Murder Themes\03. Third Theme - Damnation.wav

Pre-gap length 0:00:02.00

Peak level 95.3 %
Extraction speed 7.1 X
Track quality 100.0 %
Test CRC B82FBA61
Copy CRC B82FBA61
Track not present in AccurateRip database
Copy OK

Track 4

Filename F:\tmp\Ah Cama-Sotz 1999\Murder Themes\04. Fourth Theme - Hungry for more , Search and Destroy.wav

Pre-gap length 0:00:02.00

Peak level 77.2 %
Extraction speed 5.0 X
Track quality 99.9 %
Test CRC C8811F7E
Copy CRC C8811F7E
Track not present in AccurateRip database
Copy OK

Track 5

Filename F:\tmp\Ah Cama-Sotz 1999\Murder Themes\05. Fifth Theme - Gates of Hell.wav

Pre-gap length 0:00:02.00

Peak level 88.5 %
Extraction speed 8.5 X
Track quality 100.0 %
Test CRC 056358A7
Copy CRC 056358A7
Track not present in AccurateRip database
Copy OK

Track 6

Filename F:\tmp\Ah Cama-Sotz 1999\Murder Themes\06. Sixth Theme - Funeral.wav

Pre-gap length 0:00:02.00

Peak level 80.4 %
Extraction speed 8.2 X
Track quality 100.0 %
Test CRC EA8906BC
Copy CRC EA8906BC
Track not present in AccurateRip database
Copy OK

Track 7

Filename F:\tmp\Ah Cama-Sotz 1999\Murder Themes\07. Seventh Theme - Chimaera.wav

Pre-gap length 0:00:02.00

Peak level 100.0 %
Extraction speed 8.9 X
Track quality 100.0 %
Test CRC 0B1CB9B5
Copy CRC 0B1CB9B5
Track not present in AccurateRip database
Copy OK

None of the tracks are present in the AccurateRip database

No errors occurred

End of status report

---- CUETools DB Plugin V2.1.3

[CTDB TOCID: 6.1L7amCc0rugxR0hlgtju6gmLM-] disk not present in database, Submit result: 6.1L7amCc0rugxR0hlgtju6gmLM- has been uploaded

==== Log checksum A46BA037F5E5E90E92352D73250E6CF512174F82251DF46327023529B659EEB3 ====
------------------------------------------------------------------------------------------------------------------------------------------------------------------

Exact Audio Copy V1.0 beta 3 from 29. August 2011

EAC extraction logfile from 30. September 2012, 23:39

Ah Cama-Sotz / Terra Infernalis

Used drive : TEAC CD-W540E Adapter: 1 ID: 1

Read mode : Secure
Utilize accurate stream : Yes
Defeat audio cache : Yes
Make use of C2 pointers : No

Read offset correction : 686
Overread into Lead-In and Lead-Out : No
Fill up missing offset samples with silence : Yes
Delete leading and trailing silent blocks : No
Null samples used in CRC calculations : Yes
Used interface : Native Win32 interface for Win NT & 2000
Gap handling : Appended to previous track

Used output format : Internal WAV Routines
Sample format : 44.100 Hz; 16 Bit; Stereo

TOC of the extracted CD

Track | Start | Length | Start sector | End sector
---------------------------------------------------------
1 | 0:00.00 | 11:05.28 | 0 | 49902
2 | 11:05.28 | 6:38.07 | 49903 | 79759
3 | 17:43.35 | 4:20.63 | 79760 | 99322
4 | 22:04.23 | 5:34.23 | 99323 | 124395
5 | 27:38.46 | 8:54.34 | 124396 | 164479
6 | 36:33.05 | 6:12.01 | 164480 | 192380
7 | 42:45.06 | 6:35.22 | 192381 | 222027
8 | 49:20.28 | 4:34.73 | 222028 | 242650
9 | 53:55.26 | 4:40.10 | 242651 | 263660
10 | 58:35.36 | 4:21.44 | 263661 | 283279

Track 1

Filename F:\tmp\Ah Cama-Sotz 1999\Terra Infernalis\01. ce carnage demoniaque.wav

Pre-gap length 0:00:02.00

Peak level 100.0 %
Extraction speed 6.0 X
Track quality 100.0 %
Test CRC 39D8A743
Copy CRC 39D8A743
Accurately ripped (confidence 5) [0572FEDD] (AR v1)
Copy OK

Track 2

Filename F:\tmp\Ah Cama-Sotz 1999\Terra Infernalis\02. rite and belief.wav

Pre-gap length 0:00:01.73

Peak level 100.0 %
Extraction speed 4.6 X
Track quality 99.9 %
Test CRC 05ED127B
Copy CRC 05ED127B
Accurately ripped (confidence 5) [05984E23] (AR v1)
Copy OK

Track 3

Filename F:\tmp\Ah Cama-Sotz 1999\Terra Infernalis\03. look for graves with holes in them (l'ame du crime remix).wav

Pre-gap length 0:00:01.73

Peak level 100.0 %
Extraction speed 7.1 X
Track quality 100.0 %
Test CRC 044D4664
Copy CRC 044D4664
Accurately ripped (confidence 5) [2CA44239] (AR v1)
Copy OK

Track 4

Filename F:\tmp\Ah Cama-Sotz 1999\Terra Infernalis\04. narbukh.wav

Pre-gap length 0:00:01.73

Peak level 100.0 %
Extraction speed 4.5 X
Track quality 99.9 %
Test CRC 2DFE2B51
Copy CRC 2DFE2B51
Accurately ripped (confidence 5) [3D1BD4ED] (AR v1)
Copy OK

Track 5

Filename F:\tmp\Ah Cama-Sotz 1999\Terra Infernalis\05. empty souls.wav

Pre-gap length 0:00:01.73

Peak level 100.0 %
Extraction speed 4.7 X
Track quality 100.0 %
Test CRC D1B482EC
Copy CRC D1B482EC
Accurately ripped (confidence 5) [CAEEFA59] (AR v1)
Copy OK

Track 6

Filename F:\tmp\Ah Cama-Sotz 1999\Terra Infernalis\06. vio-lence and vivi-section.wav

Pre-gap length 0:00:01.74

Peak level 100.0 %
Extraction speed 5.3 X
Track quality 100.0 %
Test CRC 7BCA6655
Copy CRC 7BCA6655
Accurately ripped (confidence 5) [183F051A] (AR v1)
Copy OK

Track 7

Filename F:\tmp\Ah Cama-Sotz 1999\Terra Infernalis\07. look for graves with holes in them.wav

Pre-gap length 0:00:01.73

Peak level 100.0 %
Extraction speed 5.0 X
Track quality 100.0 %
Test CRC F25F336E
Copy CRC F25F336E
Accurately ripped (confidence 5) [D5FD00C2] (AR v1)
Copy OK

Track 8

Filename F:\tmp\Ah Cama-Sotz 1999\Terra Infernalis\08. none of this is true.wav

Pre-gap length 0:00:01.74

Peak level 100.0 %
Extraction speed 4.7 X
Track quality 100.0 %
Test CRC 23B23568
Copy CRC 23B23568
Accurately ripped (confidence 5) [BA3A3688] (AR v1)
Copy OK

Track 9

Filename F:\tmp\Ah Cama-Sotz 1999\Terra Infernalis\09. ill-lektrik.wav

Pre-gap length 0:00:01.74

Peak level 100.0 %
Extraction speed 5.2 X
Track quality 100.0 %
Test CRC 68F9CF47
Copy CRC 68F9CF47
Accurately ripped (confidence 5) [0F5220BE] (AR v1)
Copy OK

Track 10

Filename F:\tmp\Ah Cama-Sotz 1999\Terra Infernalis\10. zostrah.wav

Pre-gap length 0:00:01.74

Peak level 100.0 %
Extraction speed 4.7 X
Track quality 100.0 %
Test CRC FE8FBF41
Copy CRC FE8FBF41
Accurately ripped (confidence 5) [4F8BD9B6] (AR v1)
Copy OK

All tracks accurately ripped

No errors occurred

End of status report

---- CUETools DB Plugin V2.1.3

[CTDB TOCID: YJkaYfZyF5Qlb7mMQSsC4yBRPMo-] found, Submit result: YJkaYfZyF5Qlb7mMQSsC4yBRPMo- has been confirmed
[ff16911b] (6/6) Accurately ripped

==== Log checksum 1BD9B581301C83D09F20E097F6148F5A1A597AAF0BBAE8BA078F89120CA599F3 ====


REM GENRE Industrial
REM DATE 2000
REM DISCID 4109F107
REM COMMENT "ExactAudioCopy v1.0b3"
CATALOG 0000000000000
PERFORMER "Ah Cama-Sotz"
TITLE "Murder Themes"
FILE "01. First Theme . Prologue.wav" WAVE
TRACK 01 AUDIO
TITLE "First Theme . Prologue"
PERFORMER "Ah Cama-Sotz"
INDEX 01 00:00:00
TRACK 02 AUDIO
TITLE "Second Theme - Killing for Fantasy"
PERFORMER "Ah Cama-Sotz"
INDEX 00 07:20:56
FILE "02. Second Theme - Killing for Fantasy.wav" WAVE
INDEX 01 00:00:00
TRACK 03 AUDIO
TITLE "Third Theme - Damnation"
PERFORMER "Ah Cama-Sotz"
INDEX 00 05:05:63
FILE "03. Third Theme - Damnation.wav" WAVE
INDEX 01 00:00:00
TRACK 04 AUDIO
TITLE "Fourth Theme - Hungry for more / Search and Destroy"
PERFORMER "Ah Cama-Sotz"
INDEX 00 07:37:65
FILE "04. Fourth Theme - Hungry for more , Search and Destroy.wav" WAVE
INDEX 01 00:00:00
TRACK 05 AUDIO
TITLE "Fifth Theme - Gates of Hell"
PERFORMER "Ah Cama-Sotz"
INDEX 00 06:38:29
FILE "05. Fifth Theme - Gates of Hell.wav" WAVE
INDEX 01 00:00:00
TRACK 06 AUDIO
TITLE "Sixth Theme - Funeral"
PERFORMER "Ah Cama-Sotz"
INDEX 00 07:15:47
FILE "06. Sixth Theme - Funeral.wav" WAVE
INDEX 01 00:00:00
TRACK 07 AUDIO
TITLE "Seventh Theme - Chimaera"
PERFORMER "Ah Cama-Sotz"
INDEX 00 03:31:67
FILE "07. Seventh Theme - Chimaera.wav" WAVE
INDEX 01 00:00:00
---------------------------------------------------------------

REM DATE 1998
REM DISCID 910EC10A
REM COMMENT "ExactAudioCopy v1.0b3"
CATALOG 0000000000000
PERFORMER "Ah Cama-Sotz"
TITLE "Terra Infernalis"
FILE "01. ce carnage demoniaque.wav" WAVE
TRACK 01 AUDIO
TITLE "ce carnage demoniaque"
PERFORMER "Ah Cama-Sotz"
INDEX 01 00:00:00
TRACK 02 AUDIO
TITLE "rite and belief"
PERFORMER "Ah Cama-Sotz"
INDEX 00 11:03:30
FILE "02. rite and belief.wav" WAVE
INDEX 01 00:00:00
TRACK 03 AUDIO
TITLE "look for graves with holes in them (l'ame du crime remix)"
PERFORMER "Ah Cama-Sotz"
INDEX 00 06:36:09
FILE "03. look for graves with holes in them (l'ame du crime remix).wav" WAVE
INDEX 01 00:00:00
TRACK 04 AUDIO
TITLE "narbukh"
PERFORMER "Ah Cama-Sotz"
INDEX 00 04:18:65
FILE "04. narbukh.wav" WAVE
INDEX 01 00:00:00
TRACK 05 AUDIO
TITLE "empty souls"
PERFORMER "Ah Cama-Sotz"
INDEX 00 05:32:25
FILE "05. empty souls.wav" WAVE
INDEX 01 00:00:00
TRACK 06 AUDIO
TITLE "vio-lence and vivi-section"
PERFORMER "Ah Cama-Sotz"
INDEX 00 08:52:35
FILE "06. vio-lence and vivi-section.wav" WAVE
INDEX 01 00:00:00
TRACK 07 AUDIO
TITLE "look for graves with holes in them"
PERFORMER "Ah Cama-Sotz"
INDEX 00 06:10:03
FILE "07. look for graves with holes in them.wav" WAVE
INDEX 01 00:00:00
TRACK 08 AUDIO
TITLE "none of this is true"
PERFORMER "Ah Cama-Sotz"
INDEX 00 06:33:23
FILE "08. none of this is true.wav" WAVE
INDEX 01 00:00:00
TRACK 09 AUDIO
TITLE "ill-lektrik"
PERFORMER "Ah Cama-Sotz"
INDEX 00 04:32:74
FILE "09. ill-lektrik.wav" WAVE
INDEX 01 00:00:00
TRACK 10 AUDIO
TITLE "zostrah"
PERFORMER "Ah Cama-Sotz"
INDEX 00 04:38:11
FILE "10. zostrah.wav" WAVE
INDEX 01 00:00:00

Год выпуска: 1999
Продолжительность: 01:02:56
Треклист:

01. Ce Carnage Demoniaque (11:05)
02. Rite And Belief (06:38)
03. Look For Graves With Holes In Them (L'ame Du Crime Remix) (04:21)
04. Narbukh (05:34)
05. Empty Souls (08:54)
06. Vio-lence And Vivi-section (06:12)
07. Look For Graves With Holes In Them (06:35)
08. None Of This Is True (04:35)
09. Ill-lektrik (04:40)
10. Zostrah (04:22)

EAC extraction logfile from 16. March 2007, 20:29 for CD
Ah Cama-Sotz / Terra Infernalis

Used drive : SONY DVD RW DRU-720A Adapter: 3 ID: 0
Read mode : Secure with NO C2, accurate stream, disable cache
Read offset correction : 12
Overread into Lead-In and Lead-Out : No

Used output format : C:\Program Files\FLAC\flac.exe (User Defined Encoder)
192 kBit/s
Additional command line options : -V -8 -T "artist=%a" -T "title=%t" -T "album=%g" -T "date=%y" -T "tracknumber=%n" -T "genre=%m" %s

Other options :
Fill up missing offset samples with silence : Yes
Delete leading and trailing silent blocks : No
Installed external ASPI interface

Track 1
Filename C:\A\Ah Cama-Sotz - Terra Infernalis [flac]\01 - ce carnage demoniaque.wav

Peak level 100.0 %
Track quality 100.0 %
Test CRC 39D8A743
Copy CRC 39D8A743
Copy OK

Track 2
Filename C:\A\Ah Cama-Sotz - Terra Infernalis [flac]\02 - rite and belief.wav

Peak level 100.0 %
Track quality 99.9 %
Test CRC 05ED127B
Copy CRC 05ED127B
Copy OK

Track 3
Filename C:\A\Ah Cama-Sotz - Terra Infernalis [flac]\03 - look for graves with holes in them (l'ame du crime remix).wav

Peak level 100.0 %
Track quality 100.0 %
Test CRC 044D4664
Copy CRC 044D4664
Copy OK

Track 4
Filename C:\A\Ah Cama-Sotz - Terra Infernalis [flac]\04 - narbukh.wav

Peak level 100.0 %
Track quality 100.0 %
Test CRC 2DFE2B51
Copy CRC 2DFE2B51
Copy OK

Track 5
Filename C:\A\Ah Cama-Sotz - Terra Infernalis [flac]\05 - empty souls.wav

Peak level 100.0 %
Track quality 100.0 %
Test CRC D1B482EC
Copy CRC D1B482EC
Copy OK

Track 6
Filename C:\A\Ah Cama-Sotz - Terra Infernalis [flac]\06 - vio-lence and vivi-section.wav

Peak level 100.0 %
Track quality 100.0 %
Test CRC 7BCA6655
Copy CRC 7BCA6655
Copy OK

Track 7
Filename C:\A\Ah Cama-Sotz - Terra Infernalis [flac]\07 - look for graves with holes in them.wav

Peak level 100.0 %
Track quality 100.0 %
Test CRC F25F336E
Copy CRC F25F336E
Copy OK

Track 8
Filename C:\A\Ah Cama-Sotz - Terra Infernalis [flac]\08 - none of this is true.wav

Peak level 100.0 %
Track quality 100.0 %
Test CRC 23B23568
Copy CRC 23B23568
Copy OK

Track 9
Filename C:\A\Ah Cama-Sotz - Terra Infernalis [flac]\09 - ill-lektrik.wav

Peak level 100.0 %
Track quality 100.0 %
Test CRC 68F9CF47
Copy CRC 68F9CF47
Copy OK

Track 10
Filename C:\A\Ah Cama-Sotz - Terra Infernalis [flac]\10 - zostrah.wav

Peak level 100.0 %
Track quality 100.0 %
Test CRC FE8FBF41
Copy CRC FE8FBF41
Copy OK

No errors occured

End of status report


REM DATE 1998
REM DISCID 910EC10A
REM COMMENT "ExactAudioCopy v0.95b4"
PERFORMER "Ah Cama-Sotz"
TITLE "Terra Infernalis"
FILE "01 - ce carnage demoniaque.wav" WAVE
TRACK 01 AUDIO
TITLE "ce carnage demoniaque"
PERFORMER "Ah Cama-Sotz"
INDEX 01 00:00:00
TRACK 02 AUDIO
TITLE "rite and belief"
PERFORMER "Ah Cama-Sotz"
INDEX 00 11:03:30
FILE "02 - rite and belief.wav" WAVE
INDEX 01 00:00:00
TRACK 03 AUDIO
TITLE "look for graves with holes in them (l'ame du crime remix)"
PERFORMER "Ah Cama-Sotz"
INDEX 00 06:36:09
FILE "03 - look for graves with holes in them (l'ame du crime remix).wav" WAVE
INDEX 01 00:00:00
TRACK 04 AUDIO
TITLE "narbukh"
PERFORMER "Ah Cama-Sotz"
INDEX 00 04:18:65
FILE "04 - narbukh.wav" WAVE
INDEX 01 00:00:00
TRACK 05 AUDIO
TITLE "empty souls"
PERFORMER "Ah Cama-Sotz"
INDEX 00 05:32:25
FILE "05 - empty souls.wav" WAVE
INDEX 01 00:00:00
TRACK 06 AUDIO
TITLE "vio-lence and vivi-section"
PERFORMER "Ah Cama-Sotz"
INDEX 00 08:52:35
FILE "06 - vio-lence and vivi-section.wav" WAVE
INDEX 01 00:00:00
TRACK 07 AUDIO
TITLE "look for graves with holes in them"
PERFORMER "Ah Cama-Sotz"
INDEX 00 06:10:03
FILE "07 - look for graves with holes in them.wav" WAVE
INDEX 01 00:00:00
TRACK 08 AUDIO
TITLE "none of this is true"
PERFORMER "Ah Cama-Sotz"
INDEX 00 06:33:23
FILE "08 - none of this is true.wav" WAVE
INDEX 01 00:00:00
TRACK 09 AUDIO
TITLE "ill-lektrik"
PERFORMER "Ah Cama-Sotz"
INDEX 00 04:32:74
FILE "09 - ill-lektrik.wav" WAVE
INDEX 01 00:00:00
TRACK 10 AUDIO
TITLE "zostrah"
PERFORMER "Ah Cama-Sotz"
INDEX 00 04:38:11
FILE "10 - zostrah.wav" WAVE
INDEX 01 00:00:00

Год выпуска: 2000
Продолжительность: 00:43:01
Треклист:

01. God Is Deadh (07:07)
02. The Gathering (05:20)
03. Crucifixion Of The Flesh (04:44)
04. Bleeding Crosses (04:13)
05. Prophetic Vision (15:40)
06. I:Believe (05:57)

-----------------------

DON'T MODIFY THIS FILE

-----------------------

PERFORMER: auCDtect Task Manager, ver. 1.5.1RC6 build 1.5.1.7
Copyright (c) 2008-2010 y-soft. All rights reserved
http://y-soft.org

ANALYZER: auCDtect: CD records authenticity detector, version 0.8.2
Copyright (c) 2004 Oleg Berngardt. All rights reserved.
Copyright (c) 2004 Alexander Djourik. All rights reserved.

FILE: 06. I-Believe.flac
Size: 31557860 Hash: 38F43D4D6D494C2EE258A1C97CA172E3 Accuracy: -m0
Conclusion: CDDA 100%
Signature: 61C0460448908292B7289F67A6478B0C13A09786
FILE: 05. Prophetic Vision.flac
Size: 79092474 Hash: 039FF8E9C5841599AAAC7C820E9A51B2 Accuracy: -m0
Conclusion: CDDA 100%
Signature: C4DA8FD69E8259077E9E5A73F0F59EB6A20F45EC
FILE: 04. Bleeding Crosses.flac
Size: 24613726 Hash: A2DC4EE1238EC884363B2671164EF9AA Accuracy: -m0
Conclusion: CDDA 100%
Signature: 1853193220242646824DF03096BCE4F40CD4B4EC
FILE: 03. Crucifixion Of The Flesh.flac
Size: 26361760 Hash: 45E0425D6DC65DFFDD92689E37727E00 Accuracy: -m0
Conclusion: CDDA 100%
Signature: 20DE5229D139473DAA95A67317F7372179E4679F
FILE: 02. The Gathering.flac
Size: 28006509 Hash: 51F7502831D11A258632C091317806C9 Accuracy: -m0
Conclusion: CDDA 100%
Signature: AE7FF54C23D9BA89B6EFE2E4B5AC99756CA5F9E8
FILE: 01. God Is Deadh.flac
Size: 37623174 Hash: 7898CA6FD540DD172FAF8ED52FF90529 Accuracy: -m0
Conclusion: CDDA 100%
Signature: 7EDB08A0339FCB9DA9F6A408616A7A994593F999

Год выпуска: 2000
Продолжительность: 00:44:17
Треклист:

01. U-Boot Theme (07:01)
02. Deep Inferno (04:44)
03. Ocean (05:39)
04. Fate (04:43)
05. U-68 (07:09)
06. Iceberg (06:55)
07. Lord Of Steel (03:10)
08. Sinking (04:56)

-----------------------

DON'T MODIFY THIS FILE

-----------------------

PERFORMER: auCDtect Task Manager, ver. 1.5.1RC6 build 1.5.1.7
Copyright (c) 2008-2010 y-soft. All rights reserved
http://y-soft.org

ANALYZER: auCDtect: CD records authenticity detector, version 0.8.2
Copyright (c) 2004 Oleg Berngardt. All rights reserved.
Copyright (c) 2004 Alexander Djourik. All rights reserved.

FILE: 02. Deep Inferno.flac
Size: 25061344 Hash: 7701A4D7C98097C0B55D04553A5404E7 Accuracy: -m0
Conclusion: CDDA 100%
Signature: F677B70C80CF186DDD68C254118B782452975F05
FILE: 01. U-Boot Theme.flac
Size: 37825128 Hash: 40646156C3E2B73C90D56F0E728A6C99 Accuracy: -m0
Conclusion: CDDA 100%
Signature: AEB3EDC42D0C78472430D1842DB8A4A79DAAE6BF
FILE: 08. Sinking.flac
Size: 24191927 Hash: EB58A60892AF0C4B47578A6BC562B800 Accuracy: -m0
Conclusion: CDDA 100%
Signature: 986DCC41C8AE89C9FF491F62B0662D862EE5B13A
FILE: 07. Lord Of Steel.flac
Size: 13946753 Hash: 2542C75BECB8453EC2EBF84363E51301 Accuracy: -m0
Conclusion: CDDA 100%
Signature: A7D05D193DB359ED2609408526698068F1FB130D
FILE: 06. Iceberg.flac
Size: 31475554 Hash: 946886A5962B2BE93055FB80DF04EBE8 Accuracy: -m0
Conclusion: CDDA 100%
Signature: 30934B65D27BF9969F9EA677AC757357ED82C08D
FILE: 05. U-68.flac
Size: 37139972 Hash: 3243CF37E774BBF4F1F0AD3F9E5AAF56 Accuracy: -m0
Conclusion: CDDA 100%
Signature: E84C1ECB791557D965024602E0C727CFC6B03DD2
FILE: 04. Fate.flac
Size: 24346328 Hash: 76D29522E464E0019D2FA6958F2B7F14 Accuracy: -m0
Conclusion: CDDA 100%
Signature: D17678849EF26DAAECF93BE4C4D33219FC069D52
FILE: 03. Ocean.flac
Size: 26544591 Hash: 5969A2FCC2461C8BFC02E4AFCE2BE460 Accuracy: -m0
Conclusion: CDDA 100%
Signature: AF4BA5FCE04C029FB6A39F111BABFE8C4F82B4B8

VG+
Kenwood KP-990 + Empire 4000DIII/Gold
EAR 834P
HHB CDR830
16bit/44100Hz
Год выпуска: 2002
Продолжительность: 01:13:13+00:19:16
Треклист:

CD1 La Procesion De La Sangre
01. (Blood) Intro - Agnus Dei (00:57)
02. The Corridors Of The Unseen (QuickMovingOrientalMix) (05:49)
03. Blood One.Cat (00:26)
04. Sabbat IV (Hexen) (10:18)
05. Bloed Twee.Taste (00:30)
06. Ko-Brah (06:43)
07. Sang Trois.Ame (00:30)
08. El Ultimo Sacrificio (07:06)
09. Blut Vier.Darkness (00:29)
10. Estigmas (08:03)
11. Sangue Cinco.Cold (00:30)
12. Fluido Mortal (07:14)
13. Sangre Seis.Oscuridad (00:30)
14. Hungrr-ah (Dr.Blood.Meets.Dr.Demon.Mix) (06:19)
15. Lughnassadh | Rite I | (02:39)
16. Lughnassadh | Rite II | (04:52)
17. Lughnassadh | Rite III | (05:25)
18. An-Rar † Le Feu † (04:53)

CD2 God's Confession: Lustt
01. Confession (05:51)
02. Lustt (07:42)
03. Deo Gratias (05:43)

-----------------------

DON'T MODIFY THIS FILE

-----------------------

PERFORMER: auCDtect Task Manager, ver. 1.5.1RC6 build 1.5.1.7
Copyright (c) 2008-2010 y-soft. All rights reserved
http://y-soft.org

ANALYZER: auCDtect: CD records authenticity detector, version 0.8.2
Copyright (c) 2004 Oleg Berngardt. All rights reserved.
Copyright (c) 2004 Alexander Djourik. All rights reserved.

FILE: 18. An-Râr † Le Feu †.flac
Size: 38999380 Hash: D81F7739B756E7EA83A9E5C10714A41E Accuracy: -m0
Conclusion: CDDA 100%
Signature: D3E678BCBFC8D77D2EF377D0138F90941650B183
FILE: 17. Lughnassadh - Rite III -.flac
Size: 37851292 Hash: CB958C529518C141612A83F20798B0A5 Accuracy: -m0
Conclusion: CDDA 100%
Signature: 67975BBF9DD47DA94684506930720E72DA265D36
FILE: 16. Lughnassadh - Rite II -.flac
Size: 36752112 Hash: 4594C73F23634B3D70EAFD3D0393EAD7 Accuracy: -m0
Conclusion: CDDA 100%
Signature: 76B64C3F4CF65D502D317CA8C1AB454537088FA5
FILE: 15. Lughnassadh - Rite I -.flac
Size: 13877770 Hash: 155D7FE46C7C3B991984F7841874400D Accuracy: -m0
Conclusion: CDDA 99%
Signature: 371C57E73273A444D4BD0DB637756321D7EC904B
FILE: 14. Hungrr-ah (Dr.Blood.Meets.Dr.Demon.Mix).flac
Size: 49998723 Hash: C2A495E33A7F2A250D1D355E2EBC2A3D Accuracy: -m0
Conclusion: CDDA 100%
Signature: 7683EBC5703E43697EDE090D0DE3A2FD345D4F7B
FILE: 13. Sangre Seis.Oscuridad.flac
Size: 2279684 Hash: 549A3ED8834E3870190BC297682C95B0 Accuracy: -m0
Conclusion: MPEG 90%
Signature: A03257DB802DE08C14D37550D11704883DB4B48C
FILE: 12. Fluido Mortal.flac
Size: 57274144 Hash: 2F9192129C96B7BD2F2218A8075BCEBA Accuracy: -m0
Conclusion: CDDA 100%
Signature: C76F62C9559C336F811BC4D0504820ADCD9C3C75
FILE: 11. Sangue Cinco.Cold.flac
Size: 2330918 Hash: B8582F858E767906B14D2F3BFFD77B6B Accuracy: -m0
Conclusion: CDDA 100%
Signature: 4B9740C36111A2E4D07A3C631E014EDA3E382EFC
FILE: 10. Estigmas.flac
Size: 61733586 Hash: 89FC0EF7908E54AF2C72935C317792BC Accuracy: -m0
Conclusion: CDDA 100%
Signature: 9D8257998C4665241A8C368DD2832C56E265AF0E
FILE: 09. Blut Vier.Darkness.flac
Size: 2032818 Hash: 4BBA2B0ACA812FB4DD82A9087311EFD0 Accuracy: -m0
Conclusion: MPEG 93%
Signature: 916DD4C65D69AD5B09B2EA0AC9FC6A986B3EB2C7
FILE: 08. El Último Sacrificio.flac
Size: 36041973 Hash: 0C9F16E22503C41FFF501384D2426527 Accuracy: -m0
Conclusion: CDDA 100%
Signature: 69EF5EEEA92CB59EC9A0F1315496F9BE320C1FE3
FILE: 07. Sang Trois.Âme.flac
Size: 2172253 Hash: BEE7699CF16ADE42062B4C5A97E3EB0B Accuracy: -m0
Conclusion: CDDA 99%
Signature: 4F957D9A40DE311B94F5F4A819932B0567095EAD
FILE: 06. Ko-Brah.flac
Size: 47604427 Hash: E9E7B2AC4900343E42D7A484628FD9A5 Accuracy: -m0
Conclusion: CDDA 100%
Signature: BC3BFAF571FA2C08CD73FF3010FCA66A6C2404DA
FILE: 05. Bloed Twee.Taste.flac
Size: 2381670 Hash: 1EA73AC2681DC06A22F4CE8E12F40573 Accuracy: -m0
Conclusion: CDDA 100%
Signature: D81B96BFEF9B75F0E77780C4691CF5D05F93294E
FILE: 04. Sabbat IV (Hexen).flac
Size: 52913980 Hash: AED193B149AF74A461D0E034E81F46E2 Accuracy: -m0
Conclusion: CDDA 100%
Signature: 2A571EEB274B80E787F3D4E1649559C43D385986
FILE: 03. Blood One.Cat.flac
Size: 2238330 Hash: EBECDEA591ED14AB3AA15CDFBE544825 Accuracy: -m0
Conclusion: MPEG 89%
Signature: 66A919A03A6AAE39ABDED65983F6A106822C584E
FILE: 02. The Corridors Of The Unseen (QuickMovingOrientalMix).flac
Size: 48360581 Hash: 12FD8278F71345F4C31DC19E1947AC06 Accuracy: -m0
Conclusion: CDDA 100%
Signature: 1851570F8CF0B9AE47AAFC089955685A572D13F3
FILE: 01. (Blood) Intro - Agnus Dei.flac
Size: 4167299 Hash: 916177B2F5A3B8A24B3C060E9613BBFD Accuracy: -m0
Conclusion: CDDA 100%
Signature: 1213D859D04D30331AD1CB0E546BD2F927D8F11E
--------------------------------------------------------------------------------------------------

-----------------------

DON'T MODIFY THIS FILE

-----------------------

PERFORMER: auCDtect Task Manager, ver. 1.5.1RC6 build 1.5.1.7
Copyright (c) 2008-2010 y-soft. All rights reserved
http://y-soft.org

ANALYZER: auCDtect: CD records authenticity detector, version 0.8.2
Copyright (c) 2004 Oleg Berngardt. All rights reserved.
Copyright (c) 2004 Alexander Djourik. All rights reserved.

FILE: 03. Deo Gratias.flac
Size: 42978575 Hash: 8A596A29F1115BCC0D51B66575FBD7AF Accuracy: -m0
Conclusion: MPEG 79%
Signature: 441808D37F87DB9F56085AC2F1B3995082151346
FILE: 02. Lustt.flac
Size: 55308653 Hash: A8E48A8E92114633757E146AD4E96B0D Accuracy: -m0
Conclusion: MPEG 100%
Signature: 10D527174D4D96A7CC2D185C7BF1E50C728AE49E
FILE: 01. Confession.flac
Size: 38138704 Hash: 90521D40E26FF3906D4CF0523DE7AFD0 Accuracy: -m0
Conclusion: MPEG 100%
Signature: 8A18D5355107B2C3242DC0C1BDB0C8F687FA4020

Год выпуска: 2003
Продолжительность: 00:55:18+01:01:04
Треклист:

CD1 Diary Of The Infernal Gods
01. Iblis (07:33)
02. Leviathan (06:24)
03. Lix Tetrax (08:33)
04. Ahriman (05:12)
05. Ishtar (03:40)
06. Tlaltecuhtli (06:26)
07. Vucub Caquix (05:50)
08. Yenaldlooshi (06:19)
09. Lucifer (05:21)

CD2 Re.worx
01. Narbukh (Transcendal Drum Remix By Mimetic) (03:56)
02. Zostrah (Fear, Madness And Mysticism Remix By Iszoloscope) (05:48)
03. Black Hole (Deeper And Down Remix By Sonar) (04:29)
04. Hecate's Psy (Hekate's Children Remix By Empusae) (05:45)
05. Estigmas (Estigmas Cruentas Remix By Roger Rotor) (05:42)
06. El Ultimo Sacrificio (Taurobolum Remix By The [Law-Rah] Collective) (05:51)
07. Confession (Con-Fashion Remix By 5F_55) (07:07)
08. Lughnassadh (Mind Manipulatorz Of The Leghnassadh [Um Quasr Remaxes Part 1 & 2] Remix By Hypnoskull) (09:25)
09. Exxtrrminate (Foul Mouth Will Burn In Hell Remix By This Morn' Omina) (03:49)
10. Istayul (Bloodsuckers Remix By Asche) (05:01)
11. The Gathering (Sackcloth And Ashes Remix By P.A.L) (04:11)

EAC extraction logfile from 13. April 2007, 2:14 for CD
Ah Cama-Sotz / 10 Years Bat Vibez - CD 1 - Diary Of The Infernal Gods

Used drive : _NEC DVD_RW ND-3500AG Adapter: 4 ID: 0
Read mode : Secure with NO C2, accurate stream, disable cache
Read offset correction : 48
Overread into Lead-In and Lead-Out : No

Used output format : C:\Program Files\Exact Audio Copy\flac.exe (User Defined Encoder)
32 kBit/s
Additional command line options : -8 -V -T "artist=%a" -T "title=%t" -T "album=%g" -T "date=%y" -T "tracknumber=%n" -T "genre=%m" %s

Other options :
Fill up missing offset samples with silence : Yes
Delete leading and trailing silent blocks : No
Installed external ASPI interface

Track 1
Filename E:\Lossless\Electronical 2\a\Ah Cama-Sotz\Ah Cama-Sotz - 10 Years Bat Vibez [flac]\Cd 1 - Diary Of The Infernal Gods\01 - Iblis.wav

Pre-gap length 0:00:02.00

Missing samples
Peak level 0.0 %
Track quality 99.6 %
Test CRC 8D87A082
Copy CRC 8D87A082
Copy finished

Track 2
Pre-gap length 0:00:00.94

Copy aborted

Track 3
Pre-gap length 0:00:00.92

Copy aborted

Track 4
Pre-gap length 0:00:00.93

Copy aborted

Track 5
Pre-gap length 0:00:00.69

Copy aborted

Track 6
Pre-gap length 0:00:00.86

Copy aborted

Track 7
Pre-gap length 0:00:00.62

Copy aborted

Track 8
Pre-gap length 0:00:00.85

Copy aborted

Track 9
Pre-gap length 0:00:00.84

Copy aborted

There were errors

End of status report

------------------------------------------------------------

EAC extraction logfile from 13. April 2007, 10:30 for CD
Ah Cama-Sotz / 10 Years Bat Vibez - CD 1 - Diary Of The Infernal Gods

Used drive : _NEC DVD_RW ND-3500AG Adapter: 4 ID: 0
Read mode : Secure with NO C2, accurate stream, disable cache
Read offset correction : 48
Overread into Lead-In and Lead-Out : No

Used output format : C:\Program Files\Exact Audio Copy\flac.exe (User Defined Encoder)
32 kBit/s
Additional command line options : -8 -V -T "artist=%a" -T "title=%t" -T "album=%g" -T "date=%y" -T "tracknumber=%n" -T "genre=%m" %s

Other options :
Fill up missing offset samples with silence : Yes
Delete leading and trailing silent blocks : No
Installed external ASPI interface

Track 1
Filename E:\Lossless\Electronical 2\a\Ah Cama-Sotz\Ah Cama-Sotz - 10 Years Bat Vibez [flac]\Cd 1 - Diary Of The Infernal Gods\01 - Iblis.wav

Pre-gap length 0:00:02.00

Peak level 95.3 %
Track quality 100.0 %
Test CRC 8D87A082
Copy CRC 8D87A082
Copy OK

Track 2
Filename E:\Lossless\Electronical 2\a\Ah Cama-Sotz\Ah Cama-Sotz - 10 Years Bat Vibez [flac]\Cd 1 - Diary Of The Infernal Gods\02 - Leviathan.wav

Pre-gap length 0:00:00.94

Peak level 96.6 %
Track quality 99.9 %
Test CRC CDF5A9D7
Copy CRC CDF5A9D7
Copy OK

Track 3
Filename E:\Lossless\Electronical 2\a\Ah Cama-Sotz\Ah Cama-Sotz - 10 Years Bat Vibez [flac]\Cd 1 - Diary Of The Infernal Gods\03 - Lix Tetrax.wav

Pre-gap length 0:00:00.92

Peak level 95.5 %
Track quality 100.0 %
Test CRC 4100C012
Copy CRC 4100C012
Copy OK

Track 4
Filename E:\Lossless\Electronical 2\a\Ah Cama-Sotz\Ah Cama-Sotz - 10 Years Bat Vibez [flac]\Cd 1 - Diary Of The Infernal Gods\04 - Ahriman.wav

Pre-gap length 0:00:00.93

Peak level 95.4 %
Track quality 100.0 %
Test CRC 911D8E63
Copy CRC 911D8E63
Copy OK

Track 5
Filename E:\Lossless\Electronical 2\a\Ah Cama-Sotz\Ah Cama-Sotz - 10 Years Bat Vibez [flac]\Cd 1 - Diary Of The Infernal Gods\05 - Ishtar.wav

Pre-gap length 0:00:00.69

Peak level 95.5 %
Track quality 99.9 %
Test CRC 1CDD1B69
Copy CRC 1CDD1B69
Copy OK

Track 6
Filename E:\Lossless\Electronical 2\a\Ah Cama-Sotz\Ah Cama-Sotz - 10 Years Bat Vibez [flac]\Cd 1 - Diary Of The Infernal Gods\06 - Ttaltecuhtil.wav

Pre-gap length 0:00:00.86

Peak level 95.5 %
Track quality 100.0 %
Test CRC 10EDA165
Copy CRC 10EDA165
Copy OK

Track 7
Filename E:\Lossless\Electronical 2\a\Ah Cama-Sotz\Ah Cama-Sotz - 10 Years Bat Vibez [flac]\Cd 1 - Diary Of The Infernal Gods\07 - Vucub Caquix.wav

Pre-gap length 0:00:00.62

Peak level 95.5 %
Track quality 100.0 %
Test CRC A086CF02
Copy CRC A086CF02
Copy OK

Track 8
Filename E:\Lossless\Electronical 2\a\Ah Cama-Sotz\Ah Cama-Sotz - 10 Years Bat Vibez [flac]\Cd 1 - Diary Of The Infernal Gods\08 - Yenaldlooshi.wav

Pre-gap length 0:00:00.85

Peak level 95.5 %
Track quality 99.9 %
Test CRC A65ECF23
Copy CRC A65ECF23
Copy OK

Track 9
Filename E:\Lossless\Electronical 2\a\Ah Cama-Sotz\Ah Cama-Sotz - 10 Years Bat Vibez [flac]\Cd 1 - Diary Of The Infernal Gods\09 - Lucifer.wav

Pre-gap length 0:00:00.84

Peak level 95.5 %
Track quality 100.0 %
Test CRC C55D0C0A
Copy CRC C55D0C0A
Copy OK

No errors occured

End of status report
-----------------------------------------------------------------------------------------------------------------------

EAC extraction logfile from 21. April 2007, 15:24 for CD
Ah Cama-Sotz / 10 Years Bat Vibez - CD 2 - Re.worx

Used drive : _NEC DVD_RW ND-3500AG Adapter: 4 ID: 0
Read mode : Secure with NO C2, accurate stream, disable cache
Read offset correction : 48
Overread into Lead-In and Lead-Out : No

Used output format : C:\Program Files\Exact Audio Copy\flac.exe (User Defined Encoder)
32 kBit/s
Additional command line options : -8 -V -T "artist=%a" -T "title=%t" -T "album=%g" -T "date=%y" -T "tracknumber=%n" -T "genre=%m" %s

Other options :
Fill up missing offset samples with silence : Yes
Delete leading and trailing silent blocks : No
Installed external ASPI interface

Track 1
Filename E:\Lossless\Electronical 2\a\Ah Cama-Sotz\Ah Cama-Sotz - 10 Years Bat Vibez [flac]\Cd 2 - Re.worx\01 - Narbukh (Mimetic Rmx).wav

Pre-gap length 0:00:02.00

Peak level 84.4 %
Track quality 100.0 %
Test CRC 5ADCB354
Copy CRC 5ADCB354
Copy OK

Track 2
Filename E:\Lossless\Electronical 2\a\Ah Cama-Sotz\Ah Cama-Sotz - 10 Years Bat Vibez [flac]\Cd 2 - Re.worx\02 - Zostrah (Ixzoloscope Rmx).wav

Pre-gap length 0:00:01.06

Peak level 74.1 %
Track quality 100.0 %
Test CRC 664BD26C
Copy CRC 664BD26C
Copy OK

Track 3
Filename E:\Lossless\Electronical 2\a\Ah Cama-Sotz\Ah Cama-Sotz - 10 Years Bat Vibez [flac]\Cd 2 - Re.worx\03 - Black Hole (Sonar Rmx).wav

Pre-gap length 0:00:01.06

Peak level 95.5 %
Track quality 100.0 %
Test CRC A3C28046
Copy CRC A3C28046
Copy OK

Track 4
Filename E:\Lossless\Electronical 2\a\Ah Cama-Sotz\Ah Cama-Sotz - 10 Years Bat Vibez [flac]\Cd 2 - Re.worx\04 - Hecate's Psy (Empusae Rmx).wav

Pre-gap length 0:00:01.04

Peak level 92.4 %
Track quality 100.0 %
Test CRC 82017A67
Copy CRC 82017A67
Copy OK

Track 5
Filename E:\Lossless\Electronical 2\a\Ah Cama-Sotz\Ah Cama-Sotz - 10 Years Bat Vibez [flac]\Cd 2 - Re.worx\05 - Estigmas (Roger Rotor Rmx).wav

Pre-gap length 0:00:01.01

Peak level 95.5 %
Track quality 100.0 %
Test CRC 4B67F21E
Copy CRC 4B67F21E
Copy OK

Track 6
Filename E:\Lossless\Electronical 2\a\Ah Cama-Sotz\Ah Cama-Sotz - 10 Years Bat Vibez [flac]\Cd 2 - Re.worx\06 - El Ultimo Sacrificio ([Law-Rah] Collective Rmx).wav

Pre-gap length 0:00:01.12

Peak level 69.1 %
Track quality 100.0 %
Test CRC 282B919E
Copy CRC 282B919E
Copy OK

Track 7
Filename E:\Lossless\Electronical 2\a\Ah Cama-Sotz\Ah Cama-Sotz - 10 Years Bat Vibez [flac]\Cd 2 - Re.worx\07 - Confession (5F_55 Rmx).wav

Pre-gap length 0:00:01.09

Peak level 80.6 %
Track quality 100.0 %
Test CRC EC3B8DA0
Copy CRC 0303D225
Copy OK

Track 8
Filename E:\Lossless\Electronical 2\a\Ah Cama-Sotz\Ah Cama-Sotz - 10 Years Bat Vibez [flac]\Cd 2 - Re.worx\08 - Lughnassadh (Hypnoskull Rmx).wav

Pre-gap length 0:00:01.12

Peak level 73.4 %
Track quality 100.0 %
Test CRC 16BB8B85
Copy CRC 16BB8B85
Copy OK

Track 9
Filename E:\Lossless\Electronical 2\a\Ah Cama-Sotz\Ah Cama-Sotz - 10 Years Bat Vibez [flac]\Cd 2 - Re.worx\09 - Exxtrrminate (This Mourn' Omina Rmx).wav

Pre-gap length 0:00:00.84

Peak level 92.4 %
Track quality 100.0 %
Test CRC AE2B1C67
Copy CRC AE2B1C67
Copy OK

Track 10
Filename E:\Lossless\Electronical 2\a\Ah Cama-Sotz\Ah Cama-Sotz - 10 Years Bat Vibez [flac]\Cd 2 - Re.worx\10 - Istayul (Asche Rmx).wav

Pre-gap length 0:00:00.92

Peak level 95.5 %
Track quality 99.9 %
Test CRC 8F96907D
Copy CRC 8F96907D
Copy OK

Track 11
Filename E:\Lossless\Electronical 2\a\Ah Cama-Sotz\Ah Cama-Sotz - 10 Years Bat Vibez [flac]\Cd 2 - Re.worx\11 - Gathering (P.A.L Rmx).wav

Pre-gap length 0:00:01.01

Peak level 62.3 %
Track quality 100.0 %
Test CRC D55AE4AB
Copy CRC D55AE4AB
Copy OK

No errors occured

End of status report

------------------------------------------------------------

EAC extraction logfile from 21. April 2007, 15:30 for CD
Ah Cama-Sotz / 10 Years Bat Vibez - CD 2 - Re.worx

Used drive : _NEC DVD_RW ND-3500AG Adapter: 4 ID: 0
Read mode : Secure with NO C2, accurate stream, disable cache
Read offset correction : 48
Overread into Lead-In and Lead-Out : No

Used output format : C:\Program Files\Exact Audio Copy\flac.exe (User Defined Encoder)
32 kBit/s
Additional command line options : -8 -V -T "artist=%a" -T "title=%t" -T "album=%g" -T "date=%y" -T "tracknumber=%n" -T "genre=%m" %s

Other options :
Fill up missing offset samples with silence : Yes
Delete leading and trailing silent blocks : No
Installed external ASPI interface

Track 7
Filename E:\Lossless\Electronical 2\a\Ah Cama-Sotz\Ah Cama-Sotz - 10 Years Bat Vibez [flac]\Cd 2 - Re.worx\07 - Confession (5F_55 Rmx).wav

Pre-gap length 0:00:01.09

Peak level 80.6 %
Track quality 100.0 %
Test CRC 0303D225
Copy CRC 0303D225
Copy OK

No errors occured

End of status report


REM GENRE Industrial
REM DATE 2003
REM DISCID 6F0CF709
REM COMMENT "ExactAudioCopy v0.95b4"
PERFORMER "Ah Cama-Sotz"
TITLE "10 Years Bat Vibez - CD 1 - Diary Of The Infernal Gods"
FILE "01 - Iblis.wav" WAVE
TRACK 01 AUDIO
TITLE "Iblis"
PERFORMER "Ah Cama-Sotz"
ISRC 000000000000
INDEX 01 00:00:00
TRACK 02 AUDIO
TITLE "Leviathan"
PERFORMER "Ah Cama-Sotz"
ISRC 000000000000
INDEX 00 07:32:37
FILE "02 - Leviathan.wav" WAVE
INDEX 01 00:00:00
TRACK 03 AUDIO
TITLE "Lix Tetrax"
PERFORMER "Ah Cama-Sotz"
ISRC 000000000000
INDEX 00 06:23:18
FILE "03 - Lix Tetrax.wav" WAVE
INDEX 01 00:00:00
TRACK 04 AUDIO
TITLE "Ahriman"
PERFORMER "Ah Cama-Sotz"
ISRC 000000000000
INDEX 00 08:31:72
FILE "04 - Ahriman.wav" WAVE
INDEX 01 00:00:00
TRACK 05 AUDIO
TITLE "Ishtar"
PERFORMER "Ah Cama-Sotz"
ISRC 000000000000
INDEX 00 05:11:44
FILE "05 - Ishtar.wav" WAVE
INDEX 01 00:00:00
TRACK 06 AUDIO
TITLE "Ttaltecuhtil"
PERFORMER "Ah Cama-Sotz"
ISRC 000000000000
INDEX 00 03:39:46
FILE "06 - Tlaltecuhtli.wav" WAVE
INDEX 01 00:00:00
TRACK 07 AUDIO
TITLE "Vucub Caquix"
PERFORMER "Ah Cama-Sotz"
ISRC 000000000000
INDEX 00 06:25:06
FILE "07 - Vucub Caquix.wav" WAVE
INDEX 01 00:00:00
TRACK 08 AUDIO
TITLE "Yenaldlooshi"
PERFORMER "Ah Cama-Sotz"
ISRC 000000000000
INDEX 00 05:49:46
FILE "08 - Yenaldlooshi.wav" WAVE
INDEX 01 00:00:00
TRACK 09 AUDIO
TITLE "Lucifer"
PERFORMER "Ah Cama-Sotz"
ISRC 000000000000
INDEX 00 06:18:00
FILE "09 - Lucifer.wav" WAVE
INDEX 01 00:00:00
----------------------------------------------------------------------

REM GENRE Industrial
REM DATE 2003
REM DISCID 9E0E4F0B
REM COMMENT "ExactAudioCopy v0.95b4"
PERFORMER "Ah Cama-Sotz"
TITLE "10 Years Bat Vibez - CD 2 - Re.worx"
FILE "01 - Narbukh (Transcendal Drum Remix By Mimetic).wav" WAVE
TRACK 01 AUDIO
TITLE "Narbukh (Transcendal Drum Remix By Mimetic)"
PERFORMER "Ah Cama-Sotz"
ISRC 000000000000
INDEX 01 00:00:00
TRACK 02 AUDIO
TITLE "Zostrah (Fear, Madness And Mysticism Remix By Iszoloscope)"
PERFORMER "Ah Cama-Sotz"
ISRC 000000000000
INDEX 00 03:55:29
FILE "02 - Zostrah (Fear, Madness And Mysticism Remix By Iszoloscope).wav" WAVE
INDEX 01 00:00:00
TRACK 03 AUDIO
TITLE "Black Hole (Deeper And Down Remix By Sonar)"
PERFORMER "Ah Cama-Sotz"
ISRC 000000000000
INDEX 00 05:46:54
FILE "03 - Black Hole (Deeper And Down Remix By Sonar).wav" WAVE
INDEX 01 00:00:00
TRACK 04 AUDIO
TITLE "Hecate's Psy (Hekate's Children Remix By Empusae)"
PERFORMER "Ah Cama-Sotz"
ISRC 000000000000
INDEX 00 04:27:38
FILE "Hecate's Psy (Hekate's Children Remix By Empusae).wav" WAVE
INDEX 01 00:00:00
TRACK 05 AUDIO
TITLE "Estigmas (Estigmas Cruentas Remix By Roger Rotor)"
PERFORMER "Ah Cama-Sotz"
ISRC 000000000000
INDEX 00 05:43:42
FILE "05 - Estigmas (Estigmas Cruentas Remix By Roger Rotor).wav" WAVE
INDEX 01 00:00:00
TRACK 06 AUDIO
TITLE "El Ultimo Sacrificio (Taurobolum Remix By The [Law-Rah] Collective)"
PERFORMER "Ah Cama-Sotz"
ISRC 000000000000
INDEX 00 05:40:33
FILE "06 - El Ultimo Sacrificio (Taurobolum Remix By The [Law-Rah] Collective).wav" WAVE
INDEX 01 00:00:00
TRACK 07 AUDIO
TITLE "Confession (Con-Fashion Remix By 5F_55)"
PERFORMER "Ah Cama-Sotz"
ISRC 000000000000
INDEX 00 05:49:74
FILE "07 - Confession (Con-Fashion Remix By 5F_55).wav" WAVE
INDEX 01 00:00:00
TRACK 08 AUDIO
TITLE "Lughnassadh (Mind Manipulatorz Of The Leghnassadh [Um Quasr Remaxes Part 1 & 2] Remix By Hypnoskull)"
PERFORMER "Ah Cama-Sotz"
ISRC 000000000000
INDEX 00 07:06:11
FILE "08 - Lughnassadh (Mind Manipulatorz Of The Leghnassadh [Um Quasr Remaxes Part 1 & 2] Remix By Hypnoskull).wav" WAVE
INDEX 01 00:00:00
TRACK 09 AUDIO
TITLE "Exxtrrminate (Foul Mouth Will Burn In Hell Remix By This Morn' Omina)"
PERFORMER "Ah Cama-Sotz"
ISRC 000000000000
INDEX 00 09:24:13
FILE "09 - Exxtrrminate (Foul Mouth Will Burn In Hell Remix By This Morn' Omina).wav" WAVE
INDEX 01 00:00:00
TRACK 10 AUDIO
TITLE "Istayul (Bloodsuckers Remix By Asche)"
PERFORMER "Ah Cama-Sotz"
ISRC 000000000000
INDEX 00 03:48:05
FILE "10 - Istayul (Bloodsuckers Remix By Asche).wav" WAVE
INDEX 01 00:00:00
TRACK 11 AUDIO
TITLE "The Gathering (Sackcloth And Ashes Remix By P.A.L)"
PERFORMER "Ah Cama-Sotz"
ISRC 000000000000
INDEX 00 04:59:61
FILE "11 - The Gathering (Sackcloth And Ashes Remix By P.A.L).wav" WAVE
INDEX 01 00:00:00

Год выпуска: 2005
Продолжительность: 00:48:51
Треклист:

01. Prologue (00:56)
02. Sakrahl (02:16)
03. Virgins (02:30)
04. The Gathering (04:58)
05. The Howl Of The Werewolf (05:33)
06. Yog-Sothoth (05:34)
07. U-Boot Theme (06:39)
08. 1348 (05:09)
09. Sabbat I (Dawn-Ritual) (06:45)
10. Lix Tetrax (08:31)

Exact Audio Copy V0.99 prebeta 3 from 28. July 2007

EAC extraction logfile from 13. June 2008, 11:49

Ah Cama-Sotz / Ghost In The Shadow

Used drive : PLEXTOR DVDR PX-716AL Adapter: 3 ID: 0

Read mode : Secure
Utilize accurate stream : Yes
Defeat audio cache : Yes
Make use of C2 pointers : No

Read offset correction : 30
Overread into Lead-In and Lead-Out : No
Fill up missing offset samples with silence : Yes
Delete leading and trailing silent blocks : No
Null samples used in CRC calculations : Yes
Used interface : Installed external ASPI interface
Gap handling : Appended to previous track

Used output format : User Defined Encoder
Selected bitrate : 192 kBit/s
Quality : High
Add ID3 tag : No
Command line compressor : C:\Programme\Exact Audio Copy\Flac\flac.exe
Additional command line options : -8 -A tukey(0.25) -A gauss(0.1875) -b 4096 -V -T "artist=%a" -T "title=%t" -T "album=%g" -T "date=%y" -T "tracknumber=%n" -T "genre=%m" %s --sector-align

TOC of the extracted CD

Track | Start | Length | Start sector | End sector
---------------------------------------------------------
1 | 0:00.00 | 0:56.23 | 0 | 4222
2 | 0:56.23 | 2:16.06 | 4223 | 14428
3 | 3:12.29 | 2:29.73 | 14429 | 25676
4 | 5:42.27 | 4:57.57 | 25677 | 48008
5 | 10:40.09 | 5:32.47 | 48009 | 72955
6 | 16:12.56 | 5:33.56 | 72956 | 97986
7 | 21:46.37 | 6:38.47 | 97987 | 127883
8 | 28:25.09 | 5:09.31 | 127884 | 151089
9 | 33:34.40 | 6:45.12 | 151090 | 181476
10 | 40:19.52 | 8:30.67 | 181477 | 219793

Track 1

Filename c:\work\Ah Cama-Sotz - Ghost In The Shadow\01 - Prologue.wav

Pre-gap length 0:00:02.00

Peak level 80.4 %
Track quality 100.0 %
Test CRC 4170D2BF
Copy CRC 4170D2BF
Track not present in AccurateRip database
Copy OK

Track 2

Filename c:\work\Ah Cama-Sotz - Ghost In The Shadow\02 - Sakrahl.wav

Peak level 96.5 %
Track quality 100.0 %
Test CRC 8D192788
Copy CRC 8D192788
Track not present in AccurateRip database
Copy OK

Track 3

Filename c:\work\Ah Cama-Sotz - Ghost In The Shadow\03 - Virgins.wav

Peak level 96.6 %
Track quality 100.0 %
Test CRC CEC253A5
Copy CRC CEC253A5
Track not present in AccurateRip database
Copy OK

Track 4

Filename c:\work\Ah Cama-Sotz - Ghost In The Shadow\04 - The Gathering.wav

Peak level 96.6 %
Track quality 100.0 %
Test CRC 6163E95F
Copy CRC 6163E95F
Track not present in AccurateRip database
Copy OK

Track 5

Filename c:\work\Ah Cama-Sotz - Ghost In The Shadow\05 - The Howl Of The Werewolf.wav

Peak level 96.6 %
Track quality 100.0 %
Test CRC 7AC78C02
Copy CRC 7AC78C02
Track not present in AccurateRip database
Copy OK

Track 6

Filename c:\work\Ah Cama-Sotz - Ghost In The Shadow\06 - Yog-Sothoth.wav

Peak level 96.6 %
Track quality 99.9 %
Test CRC B4C0EF1B
Copy CRC B4C0EF1B
Track not present in AccurateRip database
Copy OK

Track 7

Filename c:\work\Ah Cama-Sotz - Ghost In The Shadow\07 - U-Boot Theme.wav

Peak level 96.6 %
Track quality 100.0 %
Test CRC A633D108
Copy CRC A633D108
Track not present in AccurateRip database
Copy OK

Track 8

Filename c:\work\Ah Cama-Sotz - Ghost In The Shadow\08 - 1348.wav

Peak level 96.6 %
Track quality 100.0 %
Test CRC 4F98FBAD
Copy CRC 4F98FBAD
Track not present in AccurateRip database
Copy OK

Track 9

Filename c:\work\Ah Cama-Sotz - Ghost In The Shadow\09 - Sabbat I (Dawn-Ritual).wav

Peak level 96.6 %
Track quality 100.0 %
Test CRC 6B30353E
Copy CRC 6B30353E
Track not present in AccurateRip database
Copy OK

Track 10

Filename c:\work\Ah Cama-Sotz - Ghost In The Shadow\10 - Lix Tetrax.wav

Peak level 96.6 %
Track quality 100.0 %
Test CRC 3F3D9B85
Copy CRC 3F3D9B85
Track not present in AccurateRip database
Copy OK

None of the tracks are present in the AccurateRip database

No errors occurred

End of status report



Год выпуска: 2005
Продолжительность: 01:07:52
Треклист:

01. 30 Siecles De Sommeil (03:58)
02. Armitangosh (04:50)
03. Elysium (03:35)
04. Nachtzehrer (05:10)
05. El Sueno De La Hora Mas Oscura (03:24)
06. Upon The Face Of The Earth (03:35)
07. The Blood Is Red (04:44)
08. La Messe Noire (03:39)
09. Entierro De Los Muertes (03:25)
10. Your Darkest Soul (03:50)
11. Sodom And Gomorrha (04:17)
12. Har-Rhem (04:16)
13. While Others Cry (04:57)
14. From The Blood Of The Ancient Ones (04:48)
15. Exxtrrminate (My Way To Heresy 2005 Ce-Mix) (04:23)
16. The Last Incantation (05:01)

EAC extraction logfile from 21. April 2007, 16:00 for CD
ah cama-sotz / The way to heresy

Used drive : _NEC DVD_RW ND-3500AG Adapter: 4 ID: 0
Read mode : Secure with NO C2, accurate stream, disable cache
Read offset correction : 48
Overread into Lead-In and Lead-Out : No

Used output format : C:\Program Files\Exact Audio Copy\flac.exe (User Defined Encoder)
32 kBit/s
Additional command line options : -8 -V -T "artist=%a" -T "title=%t" -T "album=%g" -T "date=%y" -T "tracknumber=%n" -T "genre=%m" %s

Other options :
Fill up missing offset samples with silence : Yes
Delete leading and trailing silent blocks : No
Installed external ASPI interface

Track 1
Filename E:\Lossless\Electronical 2\a\Ah Cama-Sotz\Ah Cama-Sotz - The way to heresy [flac]\01 - 30 siècles de sommeil.wav

Pre-gap length 0:00:02.00

Peak level 94.1 %
Track quality 99.9 %
Test CRC CEC50161
Copy CRC CEC50161
Copy OK

Track 2
Filename E:\Lossless\Electronical 2\a\Ah Cama-Sotz\Ah Cama-Sotz - The way to heresy [flac]\02 - armitangosh.wav

Peak level 99.9 %
Track quality 100.0 %
Test CRC EA4024BC
Copy CRC EA4024BC
Copy OK

Track 3
Filename E:\Lossless\Electronical 2\a\Ah Cama-Sotz\Ah Cama-Sotz - The way to heresy [flac]\03 - elysium.wav

Peak level 96.6 %
Track quality 100.0 %
Test CRC A5BBBF7F
Copy CRC A5BBBF7F
Copy OK

Track 4
Filename E:\Lossless\Electronical 2\a\Ah Cama-Sotz\Ah Cama-Sotz - The way to heresy [flac]\04 - nachtzeher.wav

Peak level 99.9 %
Track quality 100.0 %
Test CRC AB9B0009
Copy CRC AB9B0009
Copy OK

Track 5
Filename E:\Lossless\Electronical 2\a\Ah Cama-Sotz\Ah Cama-Sotz - The way to heresy [flac]\05 - el sueno de la hora mas ascura.wav

Peak level 99.9 %
Track quality 99.9 %
Test CRC 3002AFC4
Copy CRC 3002AFC4
Copy OK

Track 6
Filename E:\Lossless\Electronical 2\a\Ah Cama-Sotz\Ah Cama-Sotz - The way to heresy [flac]\06 - upon the face of the earth.wav

Peak level 96.6 %
Track quality 99.9 %
Test CRC 5D91EB36
Copy CRC 5D91EB36
Copy OK

Track 7
Filename E:\Lossless\Electronical 2\a\Ah Cama-Sotz\Ah Cama-Sotz - The way to heresy [flac]\07 - the blood is red.wav

Peak level 99.9 %
Track quality 100.0 %
Test CRC C9167C66
Copy CRC C9167C66
Copy OK

Track 8
Filename E:\Lossless\Electronical 2\a\Ah Cama-Sotz\Ah Cama-Sotz - The way to heresy [flac]\08 - la messe noire.wav

Peak level 86.2 %
Track quality 100.0 %
Test CRC B054E61A
Copy CRC B054E61A
Copy OK

Track 9
Filename E:\Lossless\Electronical 2\a\Ah Cama-Sotz\Ah Cama-Sotz - The way to heresy [flac]\09 - entierro de los muertes.wav

Peak level 96.0 %
Track quality 100.0 %
Test CRC 15B3339A
Copy CRC 15B3339A
Copy OK

Track 10
Filename E:\Lossless\Electronical 2\a\Ah Cama-Sotz\Ah Cama-Sotz - The way to heresy [flac]\10 - your darkest soul.wav

Peak level 99.9 %
Track quality 100.0 %
Test CRC D71F259B
Copy CRC D71F259B
Copy OK

Track 11
Filename E:\Lossless\Electronical 2\a\Ah Cama-Sotz\Ah Cama-Sotz - The way to heresy [flac]\11 - sodom and gomorrha.wav

Peak level 96.6 %
Track quality 100.0 %
Test CRC 10D371E5
Copy CRC 10D371E5
Copy OK

Track 12
Filename E:\Lossless\Electronical 2\a\Ah Cama-Sotz\Ah Cama-Sotz - The way to heresy [flac]\12 - har-rhem.wav

Peak level 99.9 %
Track quality 100.0 %
Test CRC 7330BD5E
Copy CRC 7330BD5E
Copy OK

Track 13
Filename E:\Lossless\Electronical 2\a\Ah Cama-Sotz\Ah Cama-Sotz - The way to heresy [flac]\13 - while others cry.wav

Pre-gap length 0:00:00.25

Peak level 99.9 %
Track quality 99.9 %
Test CRC 2EC0F792
Copy CRC 2EC0F792
Copy OK

Track 14
Filename E:\Lossless\Electronical 2\a\Ah Cama-Sotz\Ah Cama-Sotz - The way to heresy [flac]\14 - from the blood of the ancient ones.wav

Peak level 96.6 %
Track quality 100.0 %
Test CRC B13C7F48
Copy CRC B13C7F48
Copy OK

Track 15
Filename E:\Lossless\Electronical 2\a\Ah Cama-Sotz\Ah Cama-Sotz - The way to heresy [flac]\15 - exxtrrminate.wav

Peak level 99.9 %
Track quality 100.0 %
Test CRC AC28B257
Copy CRC AC28B257
Copy OK

Track 16
Filename E:\Lossless\Electronical 2\a\Ah Cama-Sotz\Ah Cama-Sotz - The way to heresy [flac]\16 - the alst incantation.wav

Peak level 88.6 %
Track quality 100.0 %
Test CRC BC04FDCC
Copy CRC BC04FDCC
Copy OK

No errors occured

End of status report


REM GENRE Industrial
REM DATE 2005
REM DISCID DD0FE910
REM COMMENT "ExactAudioCopy v0.95b4"
PERFORMER "ah cama-sotz"
TITLE "The way to heresy"
FILE "01 - 30 siecles de sommeil.wav" WAVE
TRACK 01 AUDIO
TITLE "30 siecles de sommeil"
PERFORMER "ah cama-sotz"
ISRC 000000000000
INDEX 01 00:00:00
FILE "02 - armitangosh.wav" WAVE
TRACK 02 AUDIO
TITLE "armitangosh"
PERFORMER "ah cama-sotz"
ISRC 000000000000
INDEX 01 00:00:00
FILE "03 - elysium.wav" WAVE
TRACK 03 AUDIO
TITLE "elysium"
PERFORMER "ah cama-sotz"
ISRC 000000000000
INDEX 01 00:00:00
FILE "04 - nachtzeher.wav" WAVE
TRACK 04 AUDIO
TITLE "nachtzeher"
PERFORMER "ah cama-sotz"
ISRC 000000000000
INDEX 01 00:00:00
FILE "05 - el sueno de la hora mas ascura.wav" WAVE
TRACK 05 AUDIO
TITLE "el sueno de la hora mas ascura"
PERFORMER "ah cama-sotz"
ISRC 000000000000
INDEX 01 00:00:00
FILE "06 - upon the face of the earth.wav" WAVE
TRACK 06 AUDIO
TITLE "upon the face of the earth"
PERFORMER "ah cama-sotz"
ISRC 000000000000
INDEX 01 00:00:00
FILE "07 - the blood is red.wav" WAVE
TRACK 07 AUDIO
TITLE "the blood is red"
PERFORMER "ah cama-sotz"
ISRC 000000000000
INDEX 01 00:00:00
FILE "08 - la messe noire.wav" WAVE
TRACK 08 AUDIO
TITLE "la messe noire"
PERFORMER "ah cama-sotz"
ISRC 000000000000
INDEX 01 00:00:00
FILE "09 - entierro de los muertes.wav" WAVE
TRACK 09 AUDIO
TITLE "entierro de los muertes"
PERFORMER "ah cama-sotz"
ISRC 000000000000
INDEX 01 00:00:00
FILE "10 - your darkest soul.wav" WAVE
TRACK 10 AUDIO
TITLE "your darkest soul"
PERFORMER "ah cama-sotz"
ISRC 000000000000
INDEX 01 00:00:00
FILE "11 - sodom and gomorrha.wav" WAVE
TRACK 11 AUDIO
TITLE "sodom and gomorrha"
PERFORMER "ah cama-sotz"
ISRC 000000000000
INDEX 01 00:00:00
FILE "12 - har-rhem.wav" WAVE
TRACK 12 AUDIO
TITLE "har-rhem"
PERFORMER "ah cama-sotz"
ISRC 000000000000
INDEX 01 00:00:00
TRACK 13 AUDIO
TITLE "while others cry"
PERFORMER "ah cama-sotz"
ISRC 000000000000
INDEX 00 04:16:10
FILE "13 - while others cry.wav" WAVE
INDEX 01 00:00:00
FILE "14 - from the blood of the ancient ones.wav" WAVE
TRACK 14 AUDIO
TITLE "from the blood of the ancient ones"
PERFORMER "ah cama-sotz"
ISRC 000000000000
INDEX 01 00:00:00
FILE "15 - exxtrrminate (my way to heresy 2005 ce-mix).wav" WAVE
TRACK 15 AUDIO
TITLE "exxtrrminate (my way to heresy 2005 ce-mix)"
PERFORMER "ah cama-sotz"
ISRC 000000000000
INDEX 01 00:00:00
FILE "16 - the last incantation.wav" WAVE
TRACK 16 AUDIO
TITLE "the last incantation"
PERFORMER "ah cama-sotz"
ISRC 000000000000
INDEX 01 00:00:00

Год выпуска: 2007
Продолжительность: 00:56:51
Треклист:

01. Deceitful Ghosts (05:55)
02. When The Devil Comes To You (04:57)
03. Damascus "Dar Meshq" (06:22)
04. Thermonuclear (05:58)
05. Enuma Elish (06:02)
06. Ereshkigal (05:16)
07. Rites Ov Dub |Qal'at Sim'an| (06:11)
08. Ganzir [Black Earth Version] (05:54)
09. Dead Cities (Bulika Mix) (04:55)
10. Naj' Hammadi < Theme > (05:21)

EAC extraction logfile from 25. October 2007, 22:45 for CD
Ah Cama-Sotz / Dead Cities

Used drive : _NEC DVD_RW ND-3500AG Adapter: 4 ID: 0
Read mode : Secure with NO C2, accurate stream, disable cache
Read offset correction : 48
Overread into Lead-In and Lead-Out : No

Used output format : C:\Program Files\Exact Audio Copy\flac.exe (User Defined Encoder)
32 kBit/s
Additional command line options : -8 -V -T "artist=%a" -T "title=%t" -T "album=%g" -T "date=%y" -T "tracknumber=%n" -T "genre=%m" %s

Other options :
Fill up missing offset samples with silence : Yes
Delete leading and trailing silent blocks : No
Installed external ASPI interface

Track 1
Filename E:\Lossless\Electronical 2\a\Ah Cama-Sotz\Ah Cama-Sotz - Dead Cities [flac]\01 - 1. Deceitful Ghosts.wav

Pre-gap length 0:00:02.00

Peak level 96.6 %
Track quality 99.9 %
Test CRC 49F2BB61
Copy CRC 49F2BB61
Copy OK

Track 2
Filename E:\Lossless\Electronical 2\a\Ah Cama-Sotz\Ah Cama-Sotz - Dead Cities [flac]\02 - 2. When The Devil Comes To You.wav

Peak level 99.9 %
Track quality 100.0 %
Test CRC 11E6DFEE
Copy CRC 11E6DFEE
Copy OK

Track 3
Filename E:\Lossless\Electronical 2\a\Ah Cama-Sotz\Ah Cama-Sotz - Dead Cities [flac]\03 - 3. Damascus 'Dar Meshq'.wav

Peak level 96.6 %
Track quality 100.0 %
Test CRC D34ECE25
Copy CRC D34ECE25
Copy OK

Track 4
Filename E:\Lossless\Electronical 2\a\Ah Cama-Sotz\Ah Cama-Sotz - Dead Cities [flac]\04 - 4. Thermonuclear.wav

Peak level 99.9 %
Track quality 100.0 %
Test CRC D240A3A5
Copy CRC D240A3A5
Copy OK

Track 5
Filename E:\Lossless\Electronical 2\a\Ah Cama-Sotz\Ah Cama-Sotz - Dead Cities [flac]\05 - 5. Enuma Elish.wav

Pre-gap length 0:00:00.30

Peak level 96.6 %
Track quality 100.0 %
Test CRC D104A542
Copy CRC D104A542
Copy OK

Track 6
Filename E:\Lossless\Electronical 2\a\Ah Cama-Sotz\Ah Cama-Sotz - Dead Cities [flac]\06 - 6. Ereshkigal.wav

Peak level 99.6 %
Track quality 100.0 %
Test CRC 53A8B98D
Copy CRC 53A8B98D
Copy OK

Track 7
Filename E:\Lossless\Electronical 2\a\Ah Cama-Sotz\Ah Cama-Sotz - Dead Cities [flac]\07 - 7. Rites Ov Dub !Qal'at Sim'an!.wav

Peak level 96.6 %
Track quality 100.0 %
Test CRC C62078C9
Copy CRC C62078C9
Copy OK

Track 8
Filename E:\Lossless\Electronical 2\a\Ah Cama-Sotz\Ah Cama-Sotz - Dead Cities [flac]\08 - 8. Ganzir [Black Earth Version].wav

Peak level 99.9 %
Track quality 99.9 %
Test CRC F3F94625
Copy CRC F3F94625
Copy OK

Track 9
Filename E:\Lossless\Electronical 2\a\Ah Cama-Sotz\Ah Cama-Sotz - Dead Cities [flac]\09 - 9. Dead Cities (Bulika Mix).wav

Pre-gap length 0:00:01.98

Peak level 99.9 %
Track quality 100.0 %
Test CRC F453D607
Copy CRC F453D607
Copy OK

Track 10
Filename E:\Lossless\Electronical 2\a\Ah Cama-Sotz\Ah Cama-Sotz - Dead Cities [flac]\10 - 10. Naj' Hammadi [Theme].wav

Peak level 99.9 %
Track quality 99.9 %
Test CRC 96AF1205
Copy CRC 96AF1205
Copy OK

No errors occured

End of status report


REM GENRE Electronic
REM DATE 2007
REM DISCID 8C0D530A
REM COMMENT "ExactAudioCopy v0.95b4"
PERFORMER "Ah Cama-Sotz"
TITLE "Dead Cities"
FILE "01 - Deceitful Ghosts.wav" WAVE
TRACK 01 AUDIO
TITLE "Deceitful Ghosts"
PERFORMER "Ah Cama-Sotz"
ISRC 000000000000
INDEX 01 00:00:00
FILE "02 - When The Devil Comes To You.wav" WAVE
TRACK 02 AUDIO
TITLE "When The Devil Comes To You"
PERFORMER "Ah Cama-Sotz"
ISRC 000000000000
INDEX 01 00:00:00
FILE "03 - Damascus _Dar Meshq_.wav" WAVE
TRACK 03 AUDIO
TITLE "Damascus 'Dar Meshq'"
PERFORMER "Ah Cama-Sotz"
ISRC 000000000000
INDEX 01 00:00:00
FILE "04 - Thermonuclear.wav" WAVE
TRACK 04 AUDIO
TITLE "Thermonuclear"
PERFORMER "Ah Cama-Sotz"
ISRC 000000000000
INDEX 01 00:00:00
TRACK 05 AUDIO
TITLE "Enuma Elish"
PERFORMER "Ah Cama-Sotz"
ISRC 000000000000
INDEX 00 05:57:50
FILE "05 - Enuma Elish.wav" WAVE
INDEX 01 00:00:00
FILE "06 - Ereshkigal.wav" WAVE
TRACK 06 AUDIO
TITLE "Ereshkigal"
PERFORMER "Ah Cama-Sotz"
ISRC 000000000000
INDEX 01 00:00:00
FILE "07 - Rites Ov Dub _Qal'at Sim'an_.wav" WAVE
TRACK 07 AUDIO
TITLE "Rites Ov Dub |Qal'at Sim'an|"
PERFORMER "Ah Cama-Sotz"
ISRC 000000000000
INDEX 01 00:00:00
FILE "08 - Ganzir [Black Earth Version].wav" WAVE
TRACK 08 AUDIO
TITLE "Ganzir [Black Earth Version]"
PERFORMER "Ah Cama-Sotz"
ISRC 000000000000
INDEX 01 00:00:00
TRACK 09 AUDIO
TITLE "Dead Cities (Bulika Mix)"
PERFORMER "Ah Cama-Sotz"
ISRC 000000000000
INDEX 00 05:51:46
FILE "09 - Dead Cities (Bulika Mix).wav" WAVE
INDEX 01 00:00:00
FILE "10 - Naj' Hammadi _Theme_.wav" WAVE
TRACK 10 AUDIO
TITLE "Naj' Hammadi <Theme>"
PERFORMER "Ah Cama-Sotz"
ISRC 000000000000
INDEX 01 00:00:00

Год выпуска: 2008
Продолжительность: 01:04:36
Треклист:

01. When Dreams Collide (07:31)
02. Voices From The Dark (Silentium) (06:43)
03. Warszawa (06:58)
04. Decline Of The Roman Empire (05:16)
05. Lines Are Sacred (08:59)
06. Isfahan (07:22)
07. Akhirah (04:39)
08. Offering | Sacrifice (06:29)
09. Declaration Of Innocence † Aralim (10:39)

Exact Audio Copy V0.99 prebeta 3 from 28. July 2007

EAC extraction logfile from 20. October 2008, 22:42

Ah Cama-Sotz / Declaration Of Innocence

Used drive : HL-DT-STDVDRAM GSA-H62N Adapter: 2 ID: 0

Read mode : Secure
Utilize accurate stream : Yes
Defeat audio cache : Yes
Make use of C2 pointers : No

Read offset correction : 667
Overread into Lead-In and Lead-Out : No
Fill up missing offset samples with silence : Yes
Delete leading and trailing silent blocks : No
Null samples used in CRC calculations : Yes
Used interface : Installed external ASPI interface
Gap handling : Appended to previous track

Used output format : User Defined Encoder
Selected bitrate : 192 kBit/s
Quality : High
Add ID3 tag : No
Command line compressor : C:\Programme\Exact Audio Copy\Flac\flac.exe
Additional command line options : -8 -A tukey(0.25) -A gauss(0.1875) -b 4096 -V -T "artist=%a" -T "title=%t" -T "album=%g" -T "date=%y" -T "tracknumber=%n" -T "genre=%m" %s --sector-align

TOC of the extracted CD

Track | Start | Length | Start sector | End sector
---------------------------------------------------------
1 | 0:00.00 | 7:30.68 | 0 | 33817
2 | 7:30.68 | 6:43.09 | 33818 | 64051
3 | 14:14.02 | 6:57.48 | 64052 | 95374
4 | 21:11.50 | 5:16.18 | 95375 | 119092
5 | 26:27.68 | 8:58.49 | 119093 | 159491
6 | 35:26.42 | 7:21.49 | 159492 | 192615
7 | 42:48.16 | 4:38.67 | 192616 | 213532
8 | 47:27.08 | 6:28.65 | 213533 | 242697
9 | 53:55.73 | 10:38.67 | 242698 | 290614

Track 1

Filename c:\work\Ah Cama-Sotz - Declaration Of Innocence\01 - When Dreams Collide.wav

Pre-gap length 0:00:02.00

Peak level 97.7 %
Track quality 99.9 %
Test CRC 75B3C5EF
Copy CRC 75B3C5EF
Track not present in AccurateRip database
Copy OK

Track 2

Filename c:\work\Ah Cama-Sotz - Declaration Of Innocence\02 - Voices From The Dark (Silentium).wav

Pre-gap length 0:00:00.20

Peak level 97.7 %
Track quality 99.9 %
Test CRC 2B370F20
Copy CRC 2B370F20
Track not present in AccurateRip database
Copy OK

Track 3

Filename c:\work\Ah Cama-Sotz - Declaration Of Innocence\03 - Warszawa.wav

Pre-gap length 0:00:00.20

Peak level 97.7 %
Track quality 100.0 %
Test CRC 574F9446
Copy CRC 574F9446
Track not present in AccurateRip database
Copy OK

Track 4

Filename c:\work\Ah Cama-Sotz - Declaration Of Innocence\04 - Decline Of The Roman Empire.wav

Pre-gap length 0:00:00.20

Peak level 97.7 %
Track quality 100.0 %
Test CRC 22BA0E5C
Copy CRC 22BA0E5C
Track not present in AccurateRip database
Copy OK

Track 5

Filename c:\work\Ah Cama-Sotz - Declaration Of Innocence\05 - Lines Are Sacred.wav

Pre-gap length 0:00:00.85

Peak level 97.7 %
Track quality 100.0 %
Test CRC 02636219
Copy CRC 02636219
Track not present in AccurateRip database
Copy OK

Track 6

Filename c:\work\Ah Cama-Sotz - Declaration Of Innocence\06 - Isfahan.wav

Pre-gap length 0:00:00.21

Peak level 98.2 %
Track quality 99.9 %
Test CRC 575DE313
Copy CRC 575DE313
Track not present in AccurateRip database
Copy OK

Track 7

Filename c:\work\Ah Cama-Sotz - Declaration Of Innocence\07 - Akhirah.wav

Pre-gap length 0:00:00.21

Peak level 97.7 %
Track quality 100.0 %
Test CRC A0CA54C7
Copy CRC A0CA54C7
Track not present in AccurateRip database
Copy OK

Track 8

Filename c:\work\Ah Cama-Sotz - Declaration Of Innocence\08 - Offering ! Sacrifice.wav

Peak level 97.7 %
Track quality 99.9 %
Test CRC FD77637E
Copy CRC FD77637E
Track not present in AccurateRip database
Copy OK

Track 9

Filename c:\work\Ah Cama-Sotz - Declaration Of Innocence\09 - Declaration Of Innocence † Aralim.wav

Pre-gap length 0:00:00.20

Peak level 97.7 %
Track quality 99.9 %
Test CRC FBC2A66B
Copy CRC FBC2A66B
Track not present in AccurateRip database
Copy OK

None of the tracks are present in the AccurateRip database

No errors occurred

End of status report


REM GENRE Industrial
REM DATE 2008
REM DISCID 850F2209
REM COMMENT "ExactAudioCopy v0.99pb3"
PERFORMER "Ah Cama-Sotz"
TITLE "Declaration Of Innocence"
FILE "01 - When Dreams Collide.wav" WAVE
TRACK 01 AUDIO
TITLE "When Dreams Collide"
PERFORMER "Ah Cama-Sotz"
INDEX 01 00:00:00
TRACK 02 AUDIO
TITLE "Voices From The Dark (Silentium)"
PERFORMER "Ah Cama-Sotz"
INDEX 00 07:30:53
FILE "02 - Voices From The Dark (Silentium).wav" WAVE
INDEX 01 00:00:00
TRACK 03 AUDIO
TITLE "Warszawa"
PERFORMER "Ah Cama-Sotz"
INDEX 00 06:42:69
FILE "03 - Warszawa.wav" WAVE
INDEX 01 00:00:00
TRACK 04 AUDIO
TITLE "Decline Of The Roman Empire"
PERFORMER "Ah Cama-Sotz"
INDEX 00 06:57:33
FILE "04 - Decline Of The Roman Empire.wav" WAVE
INDEX 01 00:00:00
TRACK 05 AUDIO
TITLE "Lines Are Sacred"
PERFORMER "Ah Cama-Sotz"
INDEX 00 05:15:29
FILE "05 - Lines Are Sacred.wav" WAVE
INDEX 01 00:00:00
TRACK 06 AUDIO
TITLE "Isfahan"
PERFORMER "Ah Cama-Sotz"
INDEX 00 08:58:33
FILE "06 - Isfahan.wav" WAVE
INDEX 01 00:00:00
TRACK 07 AUDIO
TITLE "Akhirah"
PERFORMER "Ah Cama-Sotz"
INDEX 00 07:21:33
FILE "07 - Akhirah.wav" WAVE
INDEX 01 00:00:00
FILE "08 - Offering ! Sacrifice.wav" WAVE
TRACK 08 AUDIO
TITLE "Offering | Sacrifice"
PERFORMER "Ah Cama-Sotz"
INDEX 01 00:00:00
TRACK 09 AUDIO
TITLE "Declaration Of Innocence † Aralim"
PERFORMER "Ah Cama-Sotz"
INDEX 00 06:28:50
FILE "09 - Declaration Of Innocence † Aralim.wav" WAVE
INDEX 01 00:00:00

Год выпуска: 2010
Продолжительность: 01:01:12
Треклист:

01. Babylon (07:10)
02. Prepare For The Final Awakening (OKK-ULTh Vs ACS) (feat. OKK-ULTh) (05:21)
03. Narayana (06:17)
04. Into The Realm Of Death (Death And Infernal Thirst Vs ACS) (feat. Death And Infernal Thirst) (05:49)
05. Salomeh (04:13)
06. Alien: The Final Sequel (Part Three) (05:20)
07. Frozen Land (03:40)
08. Diabolus In Musica (10:58)
09. Badiyat Ash-Sham (03:32)
10. Shakrah (03:45)
11. Your Darkest Soul (Fed By Flintology) (05:07)

Exact Audio Copy V0.99 prebeta 5 from 4. May 2009

EAC extraction logfile from 7. November 2010, 23:37

Ah Cama-Sotz / Blood Will Tell

Used drive : BENQ DVD DD EW164B Adapter: 7 ID: 0

Read mode : Secure
Utilize accurate stream : Yes
Defeat audio cache : Yes
Make use of C2 pointers : No

Read offset correction : 618
Overread into Lead-In and Lead-Out : No
Fill up missing offset samples with silence : Yes
Delete leading and trailing silent blocks : No
Null samples used in CRC calculations : Yes
Used interface : Native Win32 interface for Win NT & 2000
Gap handling : Appended to previous track

Used output format : User Defined Encoder
Selected bitrate : 320 kBit/s
Quality : High
Add ID3 tag : No
Command line compressor : C:\Program Files (x86)\FLAC\flac.exe
Additional command line options : -V -8 -T "artist=%a" -T "title=%t" -T "album=%g" -T "date=%y" -T "tracknumber=%n" -T "genre=%m" %s

TOC of the extracted CD

Track | Start | Length | Start sector | End sector
---------------------------------------------------------
1 | 0:00.00 | 7:10.31 | 0 | 32280
2 | 7:10.31 | 5:20.61 | 32281 | 56341
3 | 12:31.17 | 6:17.22 | 56342 | 84638
4 | 18:48.39 | 5:49.11 | 84639 | 110824
5 | 24:37.50 | 4:13.33 | 110825 | 129832
6 | 28:51.08 | 5:20.00 | 129833 | 153832
7 | 34:11.08 | 3:39.46 | 153833 | 170303
8 | 37:50.54 | 10:58.33 | 170304 | 219686
9 | 48:49.12 | 3:32.14 | 219687 | 235600
10 | 52:21.26 | 3:44.65 | 235601 | 252465
11 | 56:06.16 | 5:07.08 | 252466 | 275498

Track 1

Filename J:\# Flac\industrial.idm.noise.power.electronics.drone\# ah cama-sotz\Ah Cama-Sotz - Blood Will Tell - 2010 - FLAC\01. Ah Cama-Sotz - Babylon.wav

Pre-gap length 0:00:02.00

Peak level 98.8 %
Track quality 100.0 %
Test CRC BEE650AE
Copy CRC BEE650AE
Track not present in AccurateRip database
Copy OK

Track 2

Filename J:\# Flac\industrial.idm.noise.power.electronics.drone\# ah cama-sotz\Ah Cama-Sotz - Blood Will Tell - 2010 - FLAC\02. Ah Cama-Sotz - Prepare For The Final Awakening (OKK - ULTh Vs. ACS).wav

Peak level 98.8 %
Track quality 100.0 %
Test CRC 8AD0EBD3
Copy CRC 8AD0EBD3
Track not present in AccurateRip database
Copy OK

Track 3

Filename J:\# Flac\industrial.idm.noise.power.electronics.drone\# ah cama-sotz\Ah Cama-Sotz - Blood Will Tell - 2010 - FLAC\03. Ah Cama-Sotz - Narayana.wav

Peak level 98.8 %
Track quality 100.0 %
Test CRC F437EBA5
Copy CRC F437EBA5
Track not present in AccurateRip database
Copy OK

Track 4

Filename J:\# Flac\industrial.idm.noise.power.electronics.drone\# ah cama-sotz\Ah Cama-Sotz - Blood Will Tell - 2010 - FLAC\04. Ah Cama-Sotz - Into The Realm Of Death (Death And Infernal Thirst Vs. ACS).wav

Pre-gap length 0:00:00.90

Peak level 87.1 %
Track quality 100.0 %
Test CRC 23EA6292
Copy CRC 23EA6292
Track not present in AccurateRip database
Copy OK

Track 5

Filename J:\# Flac\industrial.idm.noise.power.electronics.drone\# ah cama-sotz\Ah Cama-Sotz - Blood Will Tell - 2010 - FLAC\05. Ah Cama-Sotz - Salomйh.wav

Peak level 98.8 %
Track quality 100.0 %
Test CRC 665AB247
Copy CRC 665AB247
Track not present in AccurateRip database
Copy OK

Track 6

Filename J:\# Flac\industrial.idm.noise.power.electronics.drone\# ah cama-sotz\Ah Cama-Sotz - Blood Will Tell - 2010 - FLAC\06. Ah Cama-Sotz - 'Alien- The Final Sequel' (Part Three).wav

Peak level 79.4 %
Track quality 100.0 %
Test CRC D7576D49
Copy CRC D7576D49
Track not present in AccurateRip database
Copy OK

Track 7

Filename J:\# Flac\industrial.idm.noise.power.electronics.drone\# ah cama-sotz\Ah Cama-Sotz - Blood Will Tell - 2010 - FLAC\07. Ah Cama-Sotz - Frozen Land.wav

Peak level 98.8 %
Track quality 100.0 %
Test CRC D569F84E
Copy CRC D569F84E
Track not present in AccurateRip database
Copy OK

Track 8

Filename J:\# Flac\industrial.idm.noise.power.electronics.drone\# ah cama-sotz\Ah Cama-Sotz - Blood Will Tell - 2010 - FLAC\08. Ah Cama-Sotz - Diabolus In Musica.wav

Pre-gap length 0:00:00.12

Peak level 98.8 %
Track quality 100.0 %
Test CRC 5FFBAF0F
Copy CRC 5FFBAF0F
Track not present in AccurateRip database
Copy OK

Track 9

Filename J:\# Flac\industrial.idm.noise.power.electronics.drone\# ah cama-sotz\Ah Cama-Sotz - Blood Will Tell - 2010 - FLAC\09. Ah Cama-Sotz - Badiyat Ash-Sham.wav

Peak level 88.1 %
Track quality 99.9 %
Test CRC 46DB6588
Copy CRC 46DB6588
Track not present in AccurateRip database
Copy OK

Track 10

Filename J:\# Flac\industrial.idm.noise.power.electronics.drone\# ah cama-sotz\Ah Cama-Sotz - Blood Will Tell - 2010 - FLAC\10. Ah Cama-Sotz - Shakrah.wav

Peak level 98.8 %
Track quality 100.0 %
Test CRC B68832D2
Copy CRC B68832D2
Track not present in AccurateRip database
Copy OK

Track 11

Filename J:\# Flac\industrial.idm.noise.power.electronics.drone\# ah cama-sotz\Ah Cama-Sotz - Blood Will Tell - 2010 - FLAC\11. Ah Cama-Sotz - Your Darkest Soul (Fed by Flintology).wav

Pre-gap length 0:00:00.96

Peak level 95.5 %
Track quality 100.0 %
Test CRC 1D6BF7C8
Copy CRC 1D6BF7C8
Track not present in AccurateRip database
Copy OK

None of the tracks are present in the AccurateRip database

No errors occurred

End of status report

REM GENRE Industrial
REM DATE 2010
REM DISCID 870E590B
REM COMMENT "ExactAudioCopy v0.99pb5"
FILE "01. Ah Cama-Sotz - Babylon.wav" WAVE
TRACK 01 AUDIO
INDEX 01 00:00:00
FILE "02. Ah Cama-Sotz - Prepare For The Final Awakening (OKK - ULTh Vs. ACS).wav" WAVE
TRACK 02 AUDIO
FLAGS DCP
INDEX 01 00:00:00
FILE "03. Ah Cama-Sotz - Narayana.wav" WAVE
TRACK 03 AUDIO
FLAGS DCP
INDEX 01 00:00:00
TRACK 04 AUDIO
FLAGS DCP
INDEX 00 06:16:29
FILE "04. Ah Cama-Sotz - Into The Realm Of Death (Death And Infernal Thirst Vs. ACS).wav" WAVE
INDEX 01 00:00:00
FILE "05. Ah Cama-Sotz - Salomйh.wav" WAVE
TRACK 05 AUDIO
FLAGS DCP
INDEX 01 00:00:00
FILE "06. Ah Cama-Sotz - 'Alien- The Final Sequel' (Part Three).wav" WAVE
TRACK 06 AUDIO
FLAGS DCP
INDEX 01 00:00:00
FILE "07. Ah Cama-Sotz - Frozen Land.wav" WAVE
TRACK 07 AUDIO
FLAGS DCP
INDEX 01 00:00:00
TRACK 08 AUDIO
FLAGS DCP
INDEX 00 03:39:37
FILE "08. Ah Cama-Sotz - Diabolus In Musica.wav" WAVE
INDEX 01 00:00:00
FILE "09. Ah Cama-Sotz - Badiyat Ash-Sham.wav" WAVE
TRACK 09 AUDIO
FLAGS DCP
INDEX 01 00:00:00
FILE "10. Ah Cama-Sotz - Shakrah.wav" WAVE
TRACK 10 AUDIO
FLAGS DCP
INDEX 01 00:00:00
TRACK 11 AUDIO
FLAGS DCP
INDEX 00 03:43:68
FILE "11. Ah Cama-Sotz - Your Darkest Soul (Fed by Flintology).wav" WAVE
INDEX 01 00:00:00

Год выпуска: 2013
Продолжительность: 00:40:08
Треклист:

01. Eighth Theme - Most Evil (06:13)
02. Ninth Theme - The Sound Of Hell (06:34)
03. Tenth Theme - A Dawn Without God (07:07)
04. Eleventh Theme - Resurrection (06:28)
05. Twelfth Theme - I Will That Men Pray Everywhere (06:42)
06. Thirteenth Theme - Bless Those Who Persecute You (07:04)

Exact Audio Copy V1.0 beta 3 from 29. August 2011

EAC extraction logfile from 23. December 2013, 12:33

Ah Cama-Sotz / Murder Themes II

Used drive : TSSTcorpCDDVDW SH-222BB Adapter: 1 ID: 0

Read mode : Secure
Utilize accurate stream : Yes
Defeat audio cache : Yes
Make use of C2 pointers : No

Read offset correction : 6
Overread into Lead-In and Lead-Out : No
Fill up missing offset samples with silence : Yes
Delete leading and trailing silent blocks : No
Null samples used in CRC calculations : Yes
Used interface : Native Win32 interface for Win NT & 2000
Gap handling : Appended to previous track

Used output format : User Defined Encoder
Selected bitrate : 1024 kBit/s
Quality : High
Add ID3 tag : No
Command line compressor : C:\Program Files (x86)\Exact Audio Copy\FLAC\FLAC.EXE
Additional command line options : -8 -V -T "ARTIST=%artist%" -T "TITLE=%title%" -T "ALBUM=%albumtitle%" -T "DATE=%year%" -T "TRACKNUMBER=%tracknr%" -T "GENRE=%genre%" -T "PERFORMER=%albuminterpret%" -T "COMPOSER=%composer%" %haslyrics%--tag-from-file=LYRICS="%lyricsfile%"%haslyrics% -T "ALBUMARTIST=%albumartist%" -T "DISCNUMBER=%cdnumber%" -T "TOTALDISCS=%totalcds%" -T "TOTALTRACKS=%numtracks%" -T "COMMENT=%comment%" %source% -o %dest%

TOC of the extracted CD

Track | Start | Length | Start sector | End sector
---------------------------------------------------------
1 | 0:00.00 | 6:12.50 | 0 | 27949
2 | 6:12.50 | 6:34.26 | 27950 | 57525
3 | 12:47.01 | 7:07.01 | 57526 | 89551
4 | 19:54.02 | 6:28.24 | 89552 | 118675
5 | 26:22.26 | 6:41.64 | 118676 | 148814
6 | 33:04.15 | 7:03.62 | 148815 | 180601

Track 1

Filename D:\rip\Ah Cama-Sotz - 2013 - Murder Themes II [cdflac]\01 - eight theme - Most Evil.wav

Pre-gap length 0:00:02.00

Peak level 95.5 %
Extraction speed 4.7 X
Track quality 100.0 %
Test CRC EFBC3D52
Copy CRC EFBC3D52
Track not present in AccurateRip database
Copy OK

Track 2

Filename D:\rip\Ah Cama-Sotz - 2013 - Murder Themes II [cdflac]\02 - ninth theme - The Sound Of Hell.wav

Peak level 95.5 %
Extraction speed 5.5 X
Track quality 100.0 %
Test CRC 11E23DA4
Copy CRC 11E23DA4
Track not present in AccurateRip database
Copy OK

Track 3

Filename D:\rip\Ah Cama-Sotz - 2013 - Murder Themes II [cdflac]\03 - tenth theme - A Dawn Without God.wav

Peak level 95.5 %
Extraction speed 6.3 X
Track quality 100.0 %
Test CRC 5E144698
Copy CRC 5E144698
Track not present in AccurateRip database
Copy OK

Track 4

Filename D:\rip\Ah Cama-Sotz - 2013 - Murder Themes II [cdflac]\04 - eleventh theme - Ressurrection.wav

Pre-gap length 0:00:04.97

Peak level 95.5 %
Extraction speed 6.9 X
Track quality 100.0 %
Test CRC CF7DA00A
Copy CRC CF7DA00A
Track not present in AccurateRip database
Copy OK

Track 5

Filename D:\rip\Ah Cama-Sotz - 2013 - Murder Themes II [cdflac]\05 - twelfth theme - I Will That Men Pray Everywhere.wav

Peak level 95.5 %
Extraction speed 7.5 X
Track quality 100.0 %
Test CRC 97B770AF
Copy CRC 97B770AF
Track not present in AccurateRip database
Copy OK

Track 6

Filename D:\rip\Ah Cama-Sotz - 2013 - Murder Themes II [cdflac]\06 - thirteenth theme - Bless Those Who Persecute You.wav

Peak level 95.5 %
Extraction speed 8.0 X
Track quality 100.0 %
Test CRC 1D8E0E3C
Copy CRC 1D8E0E3C
Track not present in AccurateRip database
Copy OK

None of the tracks are present in the AccurateRip database

No errors occurred

End of status report

==== Log checksum 9D3767EFA609F989A9057E47FCA922E5C043FE7E132ADC1D2681CF5FFD5D66A3 ====


REM DATE 2013
REM DISCID 61096806
REM COMMENT "ExactAudioCopy v1.0b3"
PERFORMER "Ah Cama-Sotz"
TITLE "Murder Themes II"
FILE "01 - eight theme - Most Evil.wav" WAVE
TRACK 01 AUDIO
TITLE "eight theme - Most Evil"
PERFORMER "Ah Cama-Sotz"
INDEX 01 00:00:00
FILE "02 - ninth theme - The Sound Of Hell.wav" WAVE
TRACK 02 AUDIO
TITLE "ninth theme - The Sound Of Hell"
PERFORMER "Ah Cama-Sotz"
INDEX 01 00:00:00
FILE "03 - tenth theme - A Dawn Without God.wav" WAVE
TRACK 03 AUDIO
TITLE "tenth theme - A Dawn Without God"
PERFORMER "Ah Cama-Sotz"
INDEX 01 00:00:00
TRACK 04 AUDIO
TITLE "eleventh theme - Ressurrection"
PERFORMER "Ah Cama-Sotz"
INDEX 00 07:02:03
FILE "04 - eleventh theme - Ressurrection.wav" WAVE
INDEX 01 00:00:00
FILE "05 - twelfth theme - I Will That Men Pray Everywhere.wav" WAVE
TRACK 05 AUDIO
TITLE "twelfth theme - I Will That Men Pray Everywhere"
PERFORMER "Ah Cama-Sotz"
INDEX 01 00:00:00
FILE "06 - thirteenth theme - Bless Those Who Persecute You.wav" WAVE
TRACK 06 AUDIO
TITLE "thirteenth theme - Bless Those Who Persecute You"
PERFORMER "Ah Cama-Sotz"
INDEX 01 00:00:00

Год выпуска: 2015
Продолжительность: 00:57:45
Треклист:

01. And It Makes Me Susceptible To Pain... (04:43)
02. Isfahan (2015 Version) (08:49)
03. Solitaire (09:11)
04. Surrender To Infinity (05:06)
05. Desert Heat (White Sands Above The Sea) (04:40)
06. Hotel Odessa (06:35)
07. Transcendental Meditation (06:39)
08. State Of Mind (08:11)
09. Room With A View (03:51)

Exact Audio Copy V1.1 from 23. June 2015

EAC extraction logfile from 14. November 2015, 13:21

Ah Cama-Sotz / State Of Mind

Used drive : TSSTcorpCDDVDW SH-222BB Adapter: 1 ID: 0

Read mode : Secure
Utilize accurate stream : Yes
Defeat audio cache : Yes
Make use of C2 pointers : No

Read offset correction : 6
Overread into Lead-In and Lead-Out : No
Fill up missing offset samples with silence : Yes
Delete leading and trailing silent blocks : No
Null samples used in CRC calculations : Yes
Used interface : Native Win32 interface for Win NT & 2000
Gap handling : Appended to previous track

Used output format : User Defined Encoder
Selected bitrate : 1024 kBit/s
Quality : High
Add ID3 tag : No
Command line compressor : C:\Program Files (x86)\Exact Audio Copy\FLAC\FLAC.EXE
Additional command line options : -8 -V -T "ARTIST=%artist%" -T "TITLE=%title%" -T "ALBUM=%albumtitle%" -T "DATE=%year%" -T "TRACKNUMBER=%tracknr%" -T "GENRE=%genre%" -T "PERFORMER=%albuminterpret%" -T "COMPOSER=%composer%" %haslyrics%--tag-from-file=LYRICS="%lyricsfile%"%haslyrics% -T "ALBUMARTIST=%albumartist%" -T "DISCNUMBER=%cdnumber%" -T "TOTALDISCS=%totalcds%" -T "TOTALTRACKS=%numtracks%" -T "COMMENT=%comment%" %source% -o %dest%

TOC of the extracted CD

Track | Start | Length | Start sector | End sector
---------------------------------------------------------
1 | 0:00.00 | 4:42.72 | 0 | 21221
2 | 4:42.72 | 8:49.33 | 21222 | 60929
3 | 13:32.30 | 9:11.28 | 60930 | 102282
4 | 22:43.58 | 5:05.51 | 102283 | 125208
5 | 27:49.34 | 4:40.22 | 125209 | 146230
6 | 32:29.56 | 6:35.04 | 146231 | 175859
7 | 39:04.60 | 6:38.62 | 175860 | 205771
8 | 45:43.47 | 8:11.20 | 205772 | 242616
9 | 53:54.67 | 3:50.55 | 242617 | 259921

Track 1

Filename C:\rip\Ah Cama-Sotz - 2015 - State of Mind [cd_flac]\01 - And It Makes Me Susceptible To Pain....wav

Pre-gap length 0:00:02.00

Peak level 95.5 %
Extraction speed 4.5 X
Track quality 100.0 %
Test CRC 15B40B1F
Copy CRC 15B40B1F
Accurately ripped (confidence 2) [97D13E5E] (AR v2)
Copy OK

Track 2

Filename C:\rip\Ah Cama-Sotz - 2015 - State of Mind [cd_flac]\02 - Isfahan (2015 Version).wav

Peak level 96.6 %
Extraction speed 5.5 X
Track quality 100.0 %
Test CRC 7F9449C7
Copy CRC 7F9449C7
Accurately ripped (confidence 2) [849360CA] (AR v2)
Copy OK

Track 3

Filename C:\rip\Ah Cama-Sotz - 2015 - State of Mind [cd_flac]\03 - Solitaire.wav

Peak level 95.5 %
Extraction speed 6.5 X
Track quality 100.0 %
Test CRC 7B50B9CF
Copy CRC 7B50B9CF
Accurately ripped (confidence 2) [F5F23269] (AR v2)
Copy OK

Track 4

Filename C:\rip\Ah Cama-Sotz - 2015 - State of Mind [cd_flac]\04 - Surrender To Infinity.wav

Peak level 60.8 %
Extraction speed 6.8 X
Track quality 100.0 %
Test CRC A3861AFD
Copy CRC A3861AFD
Accurately ripped (confidence 2) [047D42AF] (AR v2)
Copy OK

Track 5

Filename C:\rip\Ah Cama-Sotz - 2015 - State of Mind [cd_flac]\05 - Desert Heat (White Sands Above The Sea).wav

Peak level 96.6 %
Extraction speed 7.0 X
Track quality 100.0 %
Test CRC DE662C5E
Copy CRC DE662C5E
Accurately ripped (confidence 2) [607D7990] (AR v2)
Copy OK

Track 6

Filename C:\rip\Ah Cama-Sotz - 2015 - State of Mind [cd_flac]\06 - Hotel Odessa.wav

Peak level 96.6 %
Extraction speed 6.7 X
Track quality 99.9 %
Test CRC 91776096
Copy CRC 91776096
Accurately ripped (confidence 2) [F66A1232] (AR v2)
Copy OK

Track 7

Filename C:\rip\Ah Cama-Sotz - 2015 - State of Mind [cd_flac]\07 - Transcendental Meditation.wav

Peak level 95.5 %
Extraction speed 8.1 X
Track quality 100.0 %
Test CRC 75E2719B
Copy CRC 75E2719B
Accurately ripped (confidence 2) [B9F30E91] (AR v2)
Copy OK

Track 8

Filename C:\rip\Ah Cama-Sotz - 2015 - State of Mind [cd_flac]\08 - State Of Mind.wav

Peak level 67.2 %
Extraction speed 8.7 X
Track quality 100.0 %
Test CRC 13400799
Copy CRC 13400799
Accurately ripped (confidence 2) [3CA0A0A2] (AR v2)
Copy OK

Track 9

Filename C:\rip\Ah Cama-Sotz - 2015 - State of Mind [cd_flac]\09 - Room With A View.wav

Peak level 95.5 %
Extraction speed 6.6 X
Track quality 99.9 %
Test CRC DE98F883
Copy CRC DE98F883
Accurately ripped (confidence 2) [6023C313] (AR v2)
Copy OK

All tracks accurately ripped

No errors occurred

End of status report

---- CUETools DB Plugin V2.1.6

[CTDB TOCID: tDx_gy7b1RYT2DPqTXnRskQLyiA-] found
Submit result: tDx_gy7b1RYT2DPqTXnRskQLyiA- has been confirmed
Track | CTDB Status
1 | (4/4) Accurately ripped
2 | (4/4) Accurately ripped
3 | (4/4) Accurately ripped
4 | (4/4) Accurately ripped
5 | (4/4) Accurately ripped
6 | (4/4) Accurately ripped
7 | (4/4) Accurately ripped
8 | (4/4) Accurately ripped
9 | (4/4) Accurately ripped

==== Log checksum 7330DECFD30C10EB7458D5E70968C86195C1DBEBD1A539E55CDF91CB4AEE8FE6 ====


REM GENRE Electronic
REM DATE 2015
REM DISCID 7A0D8909
REM COMMENT "ExactAudioCopy v1.1"
PERFORMER "Ah Cama-Sotz"
TITLE "State Of Mind"
FILE "01 - And It Makes Me Susceptible To Pain....wav" WAVE
TRACK 01 AUDIO
TITLE "And It Makes Me Susceptible To Pain..."
PERFORMER "Ah Cama-Sotz"
INDEX 01 00:00:00
FILE "02 - Isfahan (2015 Version).wav" WAVE
TRACK 02 AUDIO
TITLE "Isfahan (2015 Version)"
PERFORMER "Ah Cama-Sotz"
INDEX 01 00:00:00
FILE "03 - Solitaire.wav" WAVE
TRACK 03 AUDIO
TITLE "Solitaire"
PERFORMER "Ah Cama-Sotz"
INDEX 01 00:00:00
FILE "04 - Surrender To Infinity.wav" WAVE
TRACK 04 AUDIO
TITLE "Surrender To Infinity"
PERFORMER "Ah Cama-Sotz"
INDEX 01 00:00:00
FILE "05 - Desert Heat (White Sands Above The Sea).wav" WAVE
TRACK 05 AUDIO
TITLE "Desert Heat (White Sands Above The Sea)"
PERFORMER "Ah Cama-Sotz"
INDEX 01 00:00:00
FILE "06 - Hotel Odessa.wav" WAVE
TRACK 06 AUDIO
TITLE "Hotel Odessa"
PERFORMER "Ah Cama-Sotz"
INDEX 01 00:00:00
FILE "07 - Transcendental Meditation.wav" WAVE
TRACK 07 AUDIO
TITLE "Transcendental Meditation"
PERFORMER "Ah Cama-Sotz"
INDEX 01 00:00:00
FILE "08 - State Of Mind.wav" WAVE
TRACK 08 AUDIO
TITLE "State Of Mind"
PERFORMER "Ah Cama-Sotz"
INDEX 01 00:00:00
FILE "09 - Room With A View.wav" WAVE
TRACK 09 AUDIO
TITLE "Room With A View"
PERFORMER "Ah Cama-Sotz"
INDEX 01 00:00:00

Год выпуска: 1999
Продолжительность: 00:21:59
Треклист:

01. Poison I - AntimonY (11:05)
02. Poison II - HydrocyaniC (10:54)

-----------------------

DON'T MODIFY THIS FILE

-----------------------

PERFORMER: auCDtect Task Manager, ver. 1.5.1RC6 build 1.5.1.7
Copyright (c) 2008-2010 y-soft. All rights reserved
http://y-soft.org

ANALYZER: auCDtect: CD records authenticity detector, version 0.8.2
Copyright (c) 2004 Oleg Berngardt. All rights reserved.
Copyright (c) 2004 Alexander Djourik. All rights reserved.

FILE: 02. Poison II - HydrocyaniC.flac
Size: 65609131 Hash: E6DD5DB6F4617F936072A35616B4D056 Accuracy: -m0
Conclusion: CDDA 100%
Signature: E171C2987C6C0EFD04B7FAC92749128D5DD946A4
FILE: 01. Poison I - AntimonY.flac
Size: 67386596 Hash: 78C34510421F7394DEA6B77350BE9CAE Accuracy: -m0
Conclusion: CDDA 100%
Signature: 64B80D4102223E142BA416382D42AE64B2F7E278

Год выпуска: 2001
Продолжительность: 00:28:59
Треклист:

01. La Hora Del Lobo (07:14)
02. Sabatt III (The Dark Path) (07:20)
03. Hungrr-Ah (Final Xcit) (06:19)
04. Mantra-XX (05:05)
05. White Witch (03:01)

EAC extraction logfile from 15. March 2007, 23:53 for CD
Ah Cama-Sotz / Mantra

Used drive : SONY DVD RW DRU-720A Adapter: 3 ID: 0
Read mode : Secure with NO C2, accurate stream, disable cache
Read offset correction : 12
Overread into Lead-In and Lead-Out : No

Used output format : C:\Program Files\FLAC\flac.exe (User Defined Encoder)
192 kBit/s
Additional command line options : -V -8 -T "artist=%a" -T "title=%t" -T "album=%g" -T "date=%y" -T "tracknumber=%n" -T "genre=%m" %s

Other options :
Fill up missing offset samples with silence : Yes
Delete leading and trailing silent blocks : No
Installed external ASPI interface

Track 1
Filename C:\A\Ah Cama-Sotz - Mantra [flac]\01 - La Hora Del Lobo.wav

Peak level 94.4 %
Track quality 100.0 %
Test CRC D95559D5
Copy CRC D95559D5
Copy OK

Track 2
Filename C:\A\Ah Cama-Sotz - Mantra [flac]\02 - Sabbat III [The Dark Path].wav

Peak level 96.6 %
Track quality 100.0 %
Test CRC 763EED75
Copy CRC 763EED75
Copy OK

Track 3
Filename C:\A\Ah Cama-Sotz - Mantra [flac]\03 - Hungrr-ah [Final Xcit].wav

Peak level 96.6 %
Track quality 100.0 %
Test CRC 5669D440
Copy CRC 5669D440
Copy OK

Track 4
Filename C:\A\Ah Cama-Sotz - Mantra [flac]\04 - Mantra-XX.wav

Peak level 84.1 %
Track quality 100.0 %
Test CRC 3A232C0F
Copy CRC 3A232C0F
Copy OK

Track 5
Filename C:\A\Ah Cama-Sotz - Mantra [flac]\05 - WhiteWitch.wav

Peak level 96.6 %
Track quality 100.0 %
Test CRC 31419270
Copy CRC 31419270
Copy OK

No errors occured

End of status report


REM GENRE Noise
REM DATE 2001
REM DISCID 4206CB05
REM COMMENT "ExactAudioCopy v0.95b4"
PERFORMER "Ah Cama-Sotz"
TITLE "Mantra"
FILE "01 - La Hora Del Lobo.wav" WAVE
TRACK 01 AUDIO
TITLE "La Hora Del Lobo"
PERFORMER "Ah Cama-Sotz"
FLAGS DCP
INDEX 01 00:00:00
TRACK 02 AUDIO
TITLE "Sabbat III [The Dark Path]"
PERFORMER "Ah Cama-Sotz"
FLAGS DCP
INDEX 00 07:13:09
FILE "02 - Sabbat III [The Dark Path].wav" WAVE
INDEX 01 00:00:00
TRACK 03 AUDIO
TITLE "Hungrr-ah [Final Xcit]"
PERFORMER "Ah Cama-Sotz"
FLAGS DCP
INDEX 00 07:19:42
FILE "03 - Hungrr-ah [Final Xcit].wav" WAVE
INDEX 01 00:00:00
TRACK 04 AUDIO
TITLE "Mantra-XX"
PERFORMER "Ah Cama-Sotz"
FLAGS DCP
INDEX 00 06:17:72
FILE "04 - Mantra-XX.wav" WAVE
INDEX 01 00:00:00
FILE "05 - WhiteWitch.wav" WAVE
TRACK 05 AUDIO
TITLE "WhiteWitch"
PERFORMER "Ah Cama-Sotz"
FLAGS DCP
INDEX 01 00:00:00

Год выпуска: 2003
Продолжительность: 00:20:38
Треклист:

01. Domination (Fascination) (07:58)
02. Sadistic Impulses (Fantasy) (08:46)
03. The Taste For Spanking (Flesh) (03:54)

EAC extraction logfile from 23. September 2007, 18:00 for CD
Ah Cama-Sotz / Rites Of The Flesh

Used drive : SONY DVD RW DRU-720A Adapter: 3 ID: 0
Read mode : Secure with NO C2, accurate stream, disable cache
Read offset correction : 12
Overread into Lead-In and Lead-Out : No

Used output format : C:\Program Files\FLAC\flac.exe (User Defined Encoder)
192 kBit/s
Additional command line options : -V -8 -T "artist=%a" -T "title=%t" -T "album=%g" -T "date=%y" -T "tracknumber=%n" -T "genre=%m" %s

Other options :
Fill up missing offset samples with silence : Yes
Delete leading and trailing silent blocks : No
Installed external ASPI interface

Track 1
Filename C:\A\Ah CAma-Sotz - Rites Of The Flesh [flac]\01 - Domination (Fascination).wav

Peak level 89.1 %
Track quality 100.0 %
Test CRC C3A3D827
Copy CRC C3A3D827
Copy OK

Track 2
Filename C:\A\Ah CAma-Sotz - Rites Of The Flesh [flac]\02 - Sadistic Impulses (Fantasy).wav

Peak level 96.6 %
Track quality 100.0 %
Test CRC 57AA7DA1
Copy CRC 57AA7DA1
Copy OK

Track 3
Filename C:\A\Ah CAma-Sotz - Rites Of The Flesh [flac]\03 - The Taste For Spanking (Flesh).wav

Peak level 96.6 %
Track quality 100.0 %
Test CRC AB0BBDE3
Copy CRC AB0BBDE3
Copy OK

No errors occured

End of status report


REM GENRE Other
REM DATE 2003
REM DISCID 1D04D603
REM COMMENT "ExactAudioCopy v0.95b4"
PERFORMER "Ah Cama-Sotz"
TITLE "Rites Of The Flesh"
FILE "01 - Domination (Fascination).wav" WAVE
TRACK 01 AUDIO
TITLE "Domination (Fascination)"
PERFORMER "Ah Cama-Sotz"
INDEX 01 00:00:00
FILE "02 - Sadistic Impulses (Fantasy).wav" WAVE
TRACK 02 AUDIO
TITLE "Sadistic Impulses (Fantasy)"
PERFORMER "Ah Cama-Sotz"
INDEX 01 00:00:00
FILE "03 - The Taste For Spanking (Flesh).wav" WAVE
TRACK 03 AUDIO
TITLE "The Taste For Spanking (Flesh)"
PERFORMER "Ah Cama-Sotz"
INDEX 01 00:00:00

Время раздачи: 12/7
[NNMClub.to]_Ah Cama-Sotz FLAC.torrent
 Торрент: Серебряная раздча  Зарегистрирован
 
Примагнититься
Free Leech
Зарегистрируйтесь и скачайте торрент!
53,9 KB
 Зарегистрирован:   15 Окт 2016 23:58:44
 Размер:   5,82 GB  (
 Рейтинг:    (Голосов: 5)
 Поблагодарили:   19
 Проверка:   Оформление проверено модератором 15 Окт 2016 23:59:56
Как cкачать  ·  Как раздать  ·  Правильно оформить  ·  Поднять ратио!  
Показать сообщения:   
Начать новую тему   Ответить на тему    Торрент-трекер NNM-Club -> Electronic -> Experimental, Industrial, EBM, Dark Electro (Lossless) Часовой пояс: GMT + 3
Страница 1 из 1