Интеллигентный торрент-трекер
canvas not supported
Нас вместе: 4 103 619

Прикосновение огнём / Touched with Fire (2015) BDRemux [H.264/1080p] [EN / EN, Sp Sub]


 
 
RSS
Начать новую тему   Ответить на тему    Торрент-трекер NNM-Club -> Зарубежное кино -> Фильмы в оригинале (HD)
Автор Сообщение
smaster67 ®
Модератор Видео
Покровитель талантов Uploader 300+
Стаж: 7 лет 5 мес.
Сообщений: 6258
Ratio: 180,084
Поблагодарили: 173795
100%
Прикосновение огнём / Touched with Fire (2015) BDRemux [H.264/1080p] [EN / EN, Sp Sub]

Производство: США
Жанр: драма, мелодрама

Режиссер: Пол Далио
Актеры: Кэти Холмс, Люк Кирби, Кристин Лати, Гриффин Данн, Брюс Олтмен, Алекс Манетт, Эдвард Гелбинович, Дэниэл Джерролл, Патрик Байас, Женевьева Адамс, Эрик Эббейт, Джеймс Лисесн

Описание:
Два человека с маниакально-депрессивными расстройствами знакомятся в психиатрической больнице и влюбляются друг в друга...



Продолжительность: 01:46:25
Качество видео: BDRemux
Перевод: Отсутствует
Язык озвучки: Английский
Язык субтитров: английский, испанский
Вид субтитров: Вшитые

Видео: AVC, 1920x1080 (16:9), 19985 kbps, 23,976 fps, 0,402 bpp
Аудио №1: английский / DTS-HD / 5.1 / 48 kHz / 1646 kbps / 16 bit (Core: 5.1 / 48 kHz / 1509 kbps / 16 bit)
Аудио №2: английский / AC3 / 2.0 / 48 kHz / 192 kbps /
Код: выделить все
General
Unique ID                                Touched.with.Fire.2015.BluRay.1080p.DTS-HD.MA.5.1.AVC.REMUX-FraMeSToR\Touched.with.Fire.2015.BluRay.1080p.DTS-HD.MA.5.1.AVC.REMUX-FraMeSToR.mkv
Format                                   : Matroska
Format version                           : Version 4 / Version 2
File size                                : 16.3 GiB
Duration                                 : 1 h 46 min
Overall bit rate mode                    : Variable
Overall bit rate                         : 21.9 Mb/s
Movie name                               : Touched with Fire
Encoded date                             : UTC 2016-10-13 23:51:08
Writing application                      : mkvmerge v9.4.2 ('So High') 64bit
Writing library                          : libebml v1.3.4 + libmatroska v1.4.5

Video
ID                                       : 1
Format                                   : AVC
Format/Info                              : Advanced Video Codec
Format profile                           : High@L4.1
Format settings, CABAC                   : Yes
Format settings, ReFrames                : 4 frames
Codec ID                                 : V_MPEG4/ISO/AVC
Duration                                 : 1 h 46 min
Bit rate mode                            : Variable
Bit rate                                 : 20.0 Mb/s
Maximum bit rate                         : 35.0 Mb/s
Width                                    : 1 920 pixels
Height                                   : 1 080 pixels
Display aspect ratio                     : 16:9
Frame rate mode                          : Constant
Frame rate                               : 23.976 (24000/1001) FPS
Standard                                 : NTSC
Color space                              : YUV
Chroma subsampling                       : 4:2:0
Bit depth                                : 8 bits
Scan type                                : Progressive
Bits/(Pixel*Frame)                       : 0.402
Stream size                              : 14.9 GiB (91%)
Default                                  : Yes
Forced                                   : No
Color range                              : Limited
Color primaries                          : BT.709
Transfer characteristics                 : BT.709
Matrix coefficients                      : BT.709

Audio #1
ID                                       : 2
Format                                   : DTS
Format/Info                              : Digital Theater Systems
Format profile                           : MA / Core
Mode                                     : 16
Format settings, Endianness              : Big
Codec ID                                 : A_DTS
Duration                                 : 1 h 46 min
Bit rate mode                            : Variable / Constant
Bit rate                                 : 1 647 kb/s / 1 509 kb/s
Channel(s)                               : 6 channels
Channel positions                        : Front: L C R, Side: L R, LFE
Sampling rate                            : 48.0 kHz
Frame rate                               : 93.750 FPS (512 spf)
Bit depth                                : 16 bits
Compression mode                         : Lossless / Lossy
Stream size                              : 1.22 GiB (8%)
Title                                    : DTS-HD MA 5.1
Language                                 : English
Default                                  : Yes
Forced                                   : No

Audio #2
ID                                       : 3
Format                                   : AC-3
Format/Info                              : Audio Coding 3
Mode extension                           : CM (complete main)
Format settings, Endianness              : Big
Codec ID                                 : A_AC3
Duration                                 : 1 h 46 min
Bit rate mode                            : Constant
Bit rate                                 : 192 kb/s
Channel(s)                               : 2 channels
Channel positions                        : Front: L R
Sampling rate                            : 48.0 kHz
Frame rate                               : 31.250 FPS (1536 spf)
Compression mode                         : Lossy
Stream size                              : 146 MiB (1%)
Title                                    : Commentary by Paul Dalio/Kristina Nikolova
Language                                 : English
Default                                  : No
Forced                                   : No

Text #1
ID                                       : 4
Format                                   : PGS
Codec ID                                 : S_HDMV/PGS
Codec ID/Info                            : Picture based subtitle format used on BDs/HD-DVDs
Duration                                 : 1 h 43 min
Bit rate                                 : 38.7 kb/s
Count of elements                        : 2756
Stream size                              : 28.7 MiB (0%)
Title                                    : English
Language                                 : English
Default                                  : Yes
Forced                                   : No

Text #2
ID                                       : 5
Format                                   : PGS
Codec ID                                 : S_HDMV/PGS
Codec ID/Info                            : Picture based subtitle format used on BDs/HD-DVDs
Duration                                 : 1 h 43 min
Bit rate                                 : 40.2 kb/s
Count of elements                        : 2878
Stream size                              : 29.9 MiB (0%)
Title                                    : English (SDH)
Language                                 : English
Default                                  : No
Forced                                   : No

Text #3
ID                                       : 6
Format                                   : PGS
Codec ID                                 : S_HDMV/PGS
Codec ID/Info                            : Picture based subtitle format used on BDs/HD-DVDs
Duration                                 : 1 h 43 min
Bit rate                                 : 37.3 kb/s
Count of elements                        : 2822
Stream size                              : 27.7 MiB (0%)
Title                                    : Spanish (Latin American)
Language                                 : Spanish
Default                                  : No
Forced                                   : No

Menu
00:00:00.000                             : en:Chapter 1
00:07:33.619                             : en:Chapter 2
00:15:03.611                             : en:Chapter 3
00:20:25.140                             : en:Chapter 4
00:24:52.824                             : en:Chapter 5
00:32:49.425                             : en:Chapter 6
00:38:16.961                             : en:Chapter 7
00:43:39.241                             : en:Chapter 8
00:49:53.782                             : en:Chapter 9
00:53:19.487                             : en:Chapter 10
00:58:25.627                             : en:Chapter 11
01:08:55.798                             : en:Chapter 12
01:16:25.539                             : en:Chapter 13
01:23:15.865                             : en:Chapter 14
01:35:03.656                             : en:Chapter 15
01:41:09.897                             : en:Chapter 16

Скриншоты:



Время раздачи: с 13:00 до 23:00
[NNMClub.to]_Touched.with.Fire.2015.BluRay.1080p.DTS-HD.MA.5.1.AVC.REMUX-FraMeSToR.mkv.torrent
 Торрент: Золотая раздача  Зарегистрирован
 
Примагнититься
Free Leech
Зарегистрируйтесь и скачайте торрент!
81,8 KB
 Зарегистрирован:   16 Окт 2016 15:28:19
 Размер:   16,3 GB  (
 Рейтинг:    (Голосов: 5)
 Поблагодарили:   30
 Проверка:   Оформление проверено модератором 16 Окт 2016 15:28:57
Как cкачать  ·  Как раздать  ·  Правильно оформить  ·  Поднять ратио!  
Показать сообщения:   
Начать новую тему   Ответить на тему    Торрент-трекер NNM-Club -> Зарубежное кино -> Фильмы в оригинале (HD) Часовой пояс: GMT + 3
Страница 1 из 1