Интеллигентный торрент-трекер
canvas not supported
Нас вместе: 4 100 723

Капитан Фантастик / Captain Fantastic (2016) BDRemux [H.264/1080p] [EN / EN, Fr, Sp Sub]


 
 
RSS
Начать новую тему   Ответить на тему    Торрент-трекер NNM-Club -> Зарубежное кино -> Фильмы в оригинале (HD)
Автор Сообщение
smaster67 ®
Модератор Видео
Покровитель талантов Uploader 300+
Стаж: 7 лет 5 мес.
Сообщений: 6250
Ratio: 179,944
Поблагодарили: 173515
100%
Капитан Фантастик / Captain Fantastic (2016) BDRemux [H.264/1080p] [EN / EN, Fr, Sp Sub]

Производство: США
Жанр: драма, мелодрама, комедия

Режиссер: Мэтт Росс
Актеры: Вигго Мортенсен, Джордж МакКэй, Саманта Ислер, Анналиса Бассо, Николас Хэмилтон, Шри Крукс, Чарли Шотуэлл, Трин Миллер, Кэтрин Хан, Стив Зан, Элайджа Стивенсон, Тедди Ван Ии

Описание:
Они говорят на нескольких языках, знают квантовую физику и разбираются в философии. Они умеют охотиться и обращаться с оружием. Они живут в лесу в полной гармонии с природой. Лишь стечение обстоятельств заставляет их покинуть родной дом и отправиться в большой город. Что будет, когда они столкнутся с цивилизацией, когда на них обрушится первая любовь и мир гаджетов и социальных сетей?



Продолжительность: 01:59:29
Качество видео: BDRemux
Перевод: Отсутствует
Язык озвучки: Английский
Язык субтитров: английский, испанский, французский
Вид субтитров: Вшитые

Видео: AVC, 1920x1080 (16:9), 26603 kbps, 23,976 fps, 0,535 bpp
Аудио: английский / DTS-HD / 5.1 / 48 kHz / 3250 kbps / 24 bit (Core: 5.1 / 48 kHz / 1509 kbps / 24 bit)
Код: выделить все
General
Unique ID                               Captain.Fantastic.2016.BluRay.1080p.DTS-HD.MA.5.1.AVC.REMUX-FraMeSToR\Captain.Fantastic.2016.BluRay.1080p.DTS-HD.MA.5.1.AVC.REMUX-FraMeSToR.mkv
Format                                   : Matroska
Format version                           : Version 4 / Version 2
File size                                : 25.0 GiB
Duration                                 : 1 h 59 min
Overall bit rate mode                    : Variable
Overall bit rate                         : 29.9 Mb/s
Movie name                               : Captain Fantastic
Encoded date                             : UTC 2016-10-16 14:08:12
Writing application                      : mkvmerge v9.4.2 ('So High') 64bit
Writing library                          : libebml v1.3.4 + libmatroska v1.4.5

Video
ID                                       : 1
Format                                   : AVC
Format/Info                              : Advanced Video Codec
Format profile                           : High@L4.1
Format settings, CABAC                   : Yes
Format settings, ReFrames                : 2 frames
Codec ID                                 : V_MPEG4/ISO/AVC
Duration                                 : 1 h 59 min
Bit rate mode                            : Variable
Bit rate                                 : 26.6 Mb/s
Width                                    : 1 920 pixels
Height                                   : 1 080 pixels
Display aspect ratio                     : 16:9
Frame rate mode                          : Constant
Frame rate                               : 23.976 (24000/1001) FPS
Color space                              : YUV
Chroma subsampling                       : 4:2:0
Bit depth                                : 8 bits
Scan type                                : Progressive
Bits/(Pixel*Frame)                       : 0.535
Stream size                              : 22.2 GiB (89%)
Default                                  : Yes
Forced                                   : No

Audio
ID                                       : 2
Format                                   : DTS
Format/Info                              : Digital Theater Systems
Format profile                           : MA / Core
Mode                                     : 16
Format settings, Endianness              : Big
Codec ID                                 : A_DTS
Duration                                 : 1 h 59 min
Bit rate mode                            : Variable / Constant
Bit rate                                 : 3 250 kb/s / 1 509 kb/s
Channel(s)                               : 6 channels
Channel positions                        : Front: L C R, Side: L R, LFE
Sampling rate                            : 48.0 kHz
Frame rate                               : 93.750 FPS (512 spf)
Bit depth                                : 24 bits
Compression mode                         : Lossless / Lossy
Stream size                              : 2.71 GiB (11%)
Title                                    : DTS-HD MA 5.1
Language                                 : English
Default                                  : Yes
Forced                                   : No

Text #1
ID                                       : 3
Format                                   : PGS
Codec ID                                 : S_HDMV/PGS
Codec ID/Info                            : Picture based subtitle format used on BDs/HD-DVDs
Duration                                 : 1 h 51 min
Bit rate                                 : 32.7 kb/s
Count of elements                        : 2650
Stream size                              : 26.1 MiB (0%)
Title                                    : English (SDH)
Language                                 : English
Default                                  : Yes
Forced                                   : No

Text #2
ID                                       : 4
Format                                   : PGS
Codec ID                                 : S_HDMV/PGS
Codec ID/Info                            : Picture based subtitle format used on BDs/HD-DVDs
Duration                                 : 1 h 54 min
Bit rate                                 : 26.2 kb/s
Count of elements                        : 2418
Stream size                              : 21.6 MiB (0%)
Title                                    : Spanish (Latin American)
Language                                 : Spanish
Default                                  : No
Forced                                   : No

Text #3
ID                                       : 5
Format                                   : PGS
Codec ID                                 : S_HDMV/PGS
Codec ID/Info                            : Picture based subtitle format used on BDs/HD-DVDs
Duration                                 : 1 h 54 min
Bit rate                                 : 27.6 kb/s
Count of elements                        : 2332
Stream size                              : 22.7 MiB (0%)
Title                                    : French
Language                                 : French
Default                                  : No
Forced                                   : No

Menu
00:00:00.000                             : en:Chapter 1
00:05:14.272                             : en:Chapter 2
00:11:12.046                             : en:Chapter 3
00:17:34.219                             : en:Chapter 4
00:25:20.727                             : en:Chapter 5
00:31:37.186                             : en:Chapter 6
00:37:41.509                             : en:Chapter 7
00:40:25.548                             : en:Chapter 8
00:46:10.601                             : en:Chapter 9
00:54:03.448                             : en:Chapter 10
00:59:34.696                             : en:Chapter 11
01:08:21.430                             : en:Chapter 12
01:14:08.485                             : en:Chapter 13
01:20:18.647                             : en:Chapter 14
01:24:30.774                             : en:Chapter 15
01:30:19.330                             : en:Chapter 16
01:36:52.807                             : en:Chapter 17
01:43:03.719                             : en:Chapter 18
01:48:23.163                             : en:Chapter 19
01:52:47.343                             : en:Chapter 20

Скриншоты:



Время раздачи: с 13:00 до 23:00
[NNMClub.to]_Captain.Fantastic.2016.BluRay.1080p.DTS-HD.MA.5.1.AVC.REMUX-FraMeSToR.mkv.torrent
 Торрент: Золотая раздача  Зарегистрирован
 
Примагнититься
Free Leech
Зарегистрируйтесь и скачайте торрент!
125 KB
 Зарегистрирован:   16 Окт 2016 23:47:11
 Размер:   25 GB  (
 Рейтинг:    (Голосов: 6)
 Поблагодарили:   30
 Проверка:   Оформление проверено модератором 16 Окт 2016 23:47:47
Как cкачать  ·  Как раздать  ·  Правильно оформить  ·  Поднять ратио!  
Cy27
Стаж: 9 лет 5 мес.
Сообщений: 131
Ratio: 18,402
Поблагодарили: 804
3.26%
russia.gif
Фильм интересный, но поддайте скорости!

_________________
Показать сообщения:   
Начать новую тему   Ответить на тему    Торрент-трекер NNM-Club -> Зарубежное кино -> Фильмы в оригинале (HD) Часовой пояс: GMT + 3
Страница 1 из 1