Интеллигентный торрент-трекер
canvas not supported
Нас вместе: 4 109 600

Ajin 2 (2016) / Полулюди [ТВ-2] [2016, TV, 9 из 12] HDTV 720p Raw+Rus


 
 
RSS
Начать новую тему   Ответить на тему    Торрент-трекер NNM-Club -> Аниме сериалы -> Аниме сериалы с русской озвучкой
Автор Сообщение
Ampho_DnB ®
RG Releasers
 
Стаж: 4 года 10 мес.
Сообщений: 3762
Ratio: 157,776
Поблагодарили: 56302
100%
Откуда: дует?
roody.gif
Ajin 2 / Полулюди [ТВ-2]
Жанр: приключения, мистика, драма
Тип: TV-сериал
Продолжительность: 9 из 12 эпизодов по 25 минут
Выпуск: c 08.10.2016
Автор: Сакурай Гамон
Снято по манге: Ajin
Режиссер: Сэсита Хироюки
Производство: Polygon Pictures
Информационные ссылки: AniDB || World Art || MAL || ANN
Релиз подготовлен группой AniLibria
  • Перевод: Cafesubs
  • Озвучивание: Lupin, Itashi, Anzen
  • Тайминг и работа со звуком: Alkhorus

Описание:
Полулюди — существа, которые не могут умереть. Впервые они появились семнадцать лет назад на поле битвы в Африке. Подобные случаи стали повторяться, и человечество было вынуждено признать, что столкнулось с необъяснимым феноменом. Но, кроме факта существования, о полулюдях практически ничего неизвестно. Поэтому правительство объявило награду за поимку «живого» экземпляра в целях исследования. Настоящее время. Обычный японский школьник предвкушает свои обычные японские летние каникулы, но не тут-то было... За это лето он явно изменится...

Качество: HDTVRip | Энкод: Ohys-Raws
Формат: MKV
Видео: x264, 1280x720, ~2 303 kbps, 23.976 fps
Аудио: AAC, 204 kbps, 48.0 kHz, 2 ch
Аудио: AAC, 192 kbps, 48.0 kHz, 2 ch
Субтитры: ASS, Встроенные, Полные | Надписи «Cafesubs»
Переводчик: Anku | Редактор/Тайм-код/Оформление: mutagenb

01. Как-то мне лень что-либо делать
02. Вокруг меня одни идиоты
03. Мне всегда страшно
04. Аж блевать тянет
05. Пожалуйста, Куро-тян
06. Тяжело быть домашней зверушкой
07. Куро-тян, ещё один раз
08. Страну ждут некоторые неприятности
09. Тут только вы мешаете моей спокойной жизни

10. Я не стану
Код: выделить все
General
Unique ID                   : 179010956466498168455263639647933919167 (0x86AC41929A2D5354AE51B882098B6FBF)
Complete name               : Ajin 2 [AniLibria]\Ajin_2_[01]_[AniLibria_TV]_[HDTV-Rip_720p].mkv
Format                      : Matroska
Format version              : Version 4 / Version 2
File size                   : 473 MiB
Duration                    : 24 min 27 s
Overall bit rate            : 2 702 kb/s
Encoded date                : UTC 2016-10-16 17:51:24
Writing application         : mkvmerge v7.2.0 ('On Every Street') 64bit built on Sep 13 2014 15:52:10
Writing library             : libebml v1.3.0 + libmatroska v1.4.1

Video
ID                          : 1
Format                      : AVC
Format/Info                 : Advanced Video Codec
Format profile              : Main@L4.1
Format settings, CABAC      : Yes
Format settings, ReFrames   : 4 frames
Codec ID                    : V_MPEG4/ISO/AVC
Duration                    : 24 min 26 s
Bit rate                    : 2 303 kb/s
Width                       : 1 280 pixels
Height                      : 720 pixels
Display aspect ratio        : 16:9
Frame rate mode             : Constant
Frame rate                  : 23.976 (24000/1001) FPS
Color space                 : YUV
Chroma subsampling          : 4:2:0
Bit depth                   : 8 bits
Scan type                   : Progressive
Bits/(Pixel*Frame)          : 0.104
Stream size                 : 403 MiB (85%)
Writing library             : x264 core 148 r2721 72d53ab
Encoding settings           : cabac=1 / ref=3 / deblock=1:0:0 / analyse=0x1:0x111 / me=hex / subme=7 / psy=1 / psy_rd=1.00:0.00 / mixed_ref=1 / me_range=16 / chroma_me=1 / trellis=1 / 8x8dct=0 / cqm=0 / deadzone=21,11 / fast_pskip=1 / chroma_qp_offset=-2 / threads=12 / lookahead_threads=2 / sliced_threads=0 / nr=0 / decimate=1 / interlaced=0 / bluray_compat=0 / constrained_intra=0 / bframes=3 / b_pyramid=2 / b_adapt=1 / b_bias=0 / direct=1 / weightb=1 / open_gop=0 / weightp=2 / keyint=240 / keyint_min=1 / scenecut=40 / intra_refresh=0 / rc_lookahead=40 / rc=crf / mbtree=1 / crf=20.0 / qcomp=0.60 / qpmin=0 / qpmax=69 / qpstep=4 / ip_ratio=1.40 / aq=1:1.50
Language                    : Japanese
Default                     : Yes
Forced                      : No
Color range                 : Limited
Color primaries             : BT.709
Transfer characteristics    : BT.709
Matrix coefficients         : BT.709

Audio #1
ID                          : 2
Format                      : AAC
Format/Info                 : Advanced Audio Codec
Format profile              : LC
Codec ID                    : A_AAC
Duration                    : 24 min 27 s
Bit rate                    : 192 kb/s
Channel(s)                  : 2 channels
Channel positions           : Front: L R
Sampling rate               : 48.0 kHz
Frame rate                  : 46.875 FPS (1024 spf)
Compression mode            : Lossy
Delay relative to video     : 9 ms
Stream size                 : 33.6 MiB (7%)
Title                       : Anzen, Lupin, Itashi
Language                    : Russian
Default                     : Yes
Forced                      : No

Audio #2
ID                          : 3
Format                      : AAC
Format/Info                 : Advanced Audio Codec
Format profile              : LC
Codec ID                    : A_AAC
Duration                    : 24 min 27 s
Bit rate                    : 204 kb/s
Channel(s)                  : 2 channels
Channel positions           : Front: L R
Sampling rate               : 48.0 kHz
Frame rate                  : 46.875 FPS (1024 spf)
Compression mode            : Lossy
Stream size                 : 35.6 MiB (8%)
Language                    : Japanese
Default                     : No
Forced                      : No

Text #1
ID                          : 4
Format                      : ASS
Codec ID                    : S_TEXT/ASS
Codec ID/Info               : Advanced Sub Station Alpha
Duration                    : 20 min 44 s
Bit rate                    : 2 b/s
Count of elements           : 2
Compression mode            : Lossless
Stream size                 : 379 Bytes (0%)
Title                       : Надписи
Language                    : Russian
Default                     : Yes
Forced                      : No

Text #2
ID                          : 5
Format                      : ASS
Codec ID                    : S_TEXT/ASS
Codec ID/Info               : Advanced Sub Station Alpha
Duration                    : 24 min 24 s
Bit rate                    : 123 b/s
Count of elements           : 270
Compression mode            : Lossless
Stream size                 : 22.1 KiB (0%)
Title                       : Субтитры
Language                    : Russian
Default                     : No
Forced                      : No


Время раздачи: До первых сидов
[NNMClub.to]_Ajin 2 [AniLibria].torrent
 Торрент:   Зарегистрирован
 
Примагнититься
Free Leech
Зарегистрируйтесь и скачайте торрент!
41,7 KB
 Зарегистрирован:   05 Дек 2016 23:08:57
 Размер:   4,08 GB  (
 Рейтинг:   4,1 (Голосов: 15)
 Поблагодарили:   67
 Проверка:   Оформление проверено модератором 06 Дек 2016 00:20:48
Как cкачать  ·  Как раздать  ·  Правильно оформить  ·  Поднять ратио!  


Последний раз редактировалось: Ampho_DnB (05 Дек 2016 23:08:36), всего редактировалось 6 раз(а)
Ampho_DnB ®
RG Releasers
 
Стаж: 4 года 10 мес.
Сообщений: 3762
Ratio: 157,776
Поблагодарили: 56302
100%
Откуда: дует?
roody.gif
Торрент обновлен. Добавлена 3 серия.
ProtasovSS
Стаж: 5 лет 1 мес.
Сообщений: 10
Ratio: 10,993
0.74%
russia.gif
Ampho_DnB ты из Томска что ли??
Ampho_DnB ®
RG Releasers
 
Стаж: 4 года 10 мес.
Сообщений: 3762
Ratio: 157,776
Поблагодарили: 56302
100%
Откуда: дует?
roody.gif
ProtasovSS писал(а): Перейти к сообщению
Ampho_DnB ты из Томска что ли??

Нет, даже не рядом, совсем не рядом.
Ampho_DnB ®
RG Releasers
 
Стаж: 4 года 10 мес.
Сообщений: 3762
Ratio: 157,776
Поблагодарили: 56302
100%
Откуда: дует?
roody.gif
Торрент обновлен. Добавлена 4 серия.
Ampho_DnB ®
RG Releasers
 
Стаж: 4 года 10 мес.
Сообщений: 3762
Ratio: 157,776
Поблагодарили: 56302
100%
Откуда: дует?
roody.gif
Торрент обновлен. Добавлена 5 серия.
Ampho_DnB ®
RG Releasers
 
Стаж: 4 года 10 мес.
Сообщений: 3762
Ratio: 157,776
Поблагодарили: 56302
100%
Откуда: дует?
roody.gif
Торрент обновлен. Добавлена 6 серия.
Ampho_DnB ®
RG Releasers
 
Стаж: 4 года 10 мес.
Сообщений: 3762
Ratio: 157,776
Поблагодарили: 56302
100%
Откуда: дует?
roody.gif
Торрент обновлен. Добавлена 7 серия.
Ampho_DnB ®
RG Releasers
 
Стаж: 4 года 10 мес.
Сообщений: 3762
Ratio: 157,776
Поблагодарили: 56302
100%
Откуда: дует?
roody.gif
Торрент обновлен. Добавлена 8 серия.
Ampho_DnB ®
RG Releasers
 
Стаж: 4 года 10 мес.
Сообщений: 3762
Ratio: 157,776
Поблагодарили: 56302
100%
Откуда: дует?
roody.gif
Торрент обновлен. Добавлена 9 серия.
Показать сообщения:   
Начать новую тему   Ответить на тему    Торрент-трекер NNM-Club -> Аниме сериалы -> Аниме сериалы с русской озвучкой Часовой пояс: GMT + 3
Страница 1 из 1