Интеллигентный торрент-трекер
canvas not supported
Нас вместе: 4 114 816

Смертельная семёрка / Dead 7 (2016) BDRip [H.264/720p] [EN]


 
 
RSS
Начать новую тему   Ответить на тему    Торрент-трекер NNM-Club -> Зарубежное кино -> Фильмы в оригинале (HD)
Автор Сообщение
smaster67 ®
Модератор Видео
Покровитель талантов Uploader 300+
Стаж: 7 лет 5 мес.
Сообщений: 6275
Ratio: 180,99
Поблагодарили: 174684
100%
Смертельная семёрка / Dead 7 (2016) BDRip [H.264/720p] [EN]

Производство: США
Жанр: ужасы, комедия, вестерн

Режиссер: Денни Роу
Актеры: Ник Картер, Джефф Тиммонс, Джои Фатоне, Кэрри Киган, Эй Джей МакЛин, Эрик-Майкл Эстрада, Лорен Китт, Хлоя Латтанци, Дебра Уилсон, Хоуи Дороу, Крис Киркпатрик, Джон Секада

Описание:
Это пост-апокалиптический вестерн, в котором группа убийц собирается избавить маленький городок от зомби-чумы.



Продолжительность: 01:28:29
Качество видео: BDRip 720p
Перевод: Отсутствует
Язык озвучки: Английский

Видео: AVC, 1280x720 (16:9), 5562 kbps, 23,976 fps, 0,252 bpp
Аудио: английский / DTS / 5.1 / 48 kHz / 1509 kbps / 24 bit
Код: выделить все
General
Unique ID                                Dead 7-720p.mkv
Format                                   : Matroska
Format version                           : Version 4 / Version 2
File size                                : 4.37 GiB
Duration                                 : 1 h 28 min
Overall bit rate                         : 7 074 kb/s
Encoded date                             : UTC 2016-10-18 00:34:17
Writing application                      : mkvmerge v9.0.1 ('Obstacles') 64bit
Writing library                          : libebml v1.3.3 + libmatroska v1.4.4

Video
ID                                       : 1
Format                                   : AVC
Format/Info                              : Advanced Video Codec
Format profile                           : High@L4.1
Format settings, CABAC                   : Yes
Format settings, ReFrames                : 5 frames
Codec ID                                 : V_MPEG4/ISO/AVC
Duration                                 : 1 h 28 min
Bit rate                                 : 5 562 kb/s
Width                                    : 1 280 pixels
Height                                   : 720 pixels
Display aspect ratio                     : 16:9
Frame rate mode                          : Constant
Frame rate                               : 23.976 (24000/1001) FPS
Color space                              : YUV
Chroma subsampling                       : 4:2:0
Bit depth                                : 8 bits
Scan type                                : Progressive
Bits/(Pixel*Frame)                       : 0.252
Stream size                              : 3.44 GiB (79%)
Writing library                          : x264 core 148 r2705 3f5ed56
Encoding settings                        : cabac=1 / ref=5 / deblock=1:0:0 / analyse=0x3:0x113 / me=umh / subme=7 / psy=1 / psy_rd=1.00:0.00 / mixed_ref=1 / me_range=16 / chroma_me=1 / trellis=1 / 8x8dct=1 / cqm=0 / deadzone=21,11 / fast_pskip=0 / chroma_qp_offset=-2 / threads=12 / lookahead_threads=2 / sliced_threads=0 / nr=0 / decimate=1 / interlaced=0 / bluray_compat=0 / constrained_intra=0 / bframes=3 / b_pyramid=2 / b_adapt=2 / b_bias=0 / direct=3 / weightb=1 / open_gop=0 / weightp=2 / keyint=250 / keyint_min=23 / scenecut=40 / intra_refresh=0 / rc_lookahead=50 / rc=2pass / mbtree=1 / bitrate=5562 / ratetol=1.0 / qcomp=0.60 / qpmin=0 / qpmax=69 / qpstep=4 / cplxblur=20.0 / qblur=0.5 / ip_ratio=1.40 / aq=1:1.00
Default                                  : Yes
Forced                                   : No

Audio
ID                                       : 2
Format                                   : DTS
Format/Info                              : Digital Theater Systems
Mode                                     : 16
Format settings, Endianness              : Big
Codec ID                                 : A_DTS
Duration                                 : 1 h 28 min
Bit rate mode                            : Constant
Bit rate                                 : 1 509 kb/s
Channel(s)                               : 6 channels
Channel positions                        : Front: L C R, Side: L R, LFE
Sampling rate                            : 48.0 kHz
Frame rate                               : 93.750 FPS (512 spf)
Bit depth                                : 24 bits
Compression mode                         : Lossy
Stream size                              : 955 MiB (21%)
Language                                 : English
Default                                  : No
Forced                                   : No

Скриншоты:



Время раздачи: с 13:00 до 23:00
[NNMClub.to]_Dead 7-720p.mkv.torrent
 Торрент: Серебряная раздча  Зарегистрирован
 
Примагнититься
Free Leech
Зарегистрируйтесь и скачайте торрент!
22 KB
 Зарегистрирован:   18 Окт 2016 19:19:35
 Размер:   4,37 GB  (
 Рейтинг:    (Голосов: 9)
 Поблагодарили:   40
 Проверка:   Оформление проверено модератором 18 Окт 2016 19:20:18
Как cкачать  ·  Как раздать  ·  Правильно оформить  ·  Поднять ратио!  
Dma321
Стаж: 7 лет 8 мес.
Сообщений: 266
Ratio: 35,754
100%
russia.gif
Отличнейший фильм своего жанра!
Спасибо за раздачу.
mz_from_by
Стаж: 2 года 9 мес.
Сообщений: 21
Ratio: 2,278
100%
Dma321 писал(а): Перейти к сообщению
Отличнейший фильм своего жанра!
Спасибо за раздачу.
под какими веществами(если конечно не секрет) нужно сие смотреть, чтобы оно стало "отличнейшим фильмом своего жанра"?
beovulf86

Online
Стаж: 5 лет 9 мес.
Сообщений: 146
Ratio: 4,736
68.83%
russia.gif
Как же американцы помешаны на зомби! Их излюбнейшая тема.
Makar1972
Меломан
Стаж: 6 лет 5 мес.
Сообщений: 222
Ratio: 42,767
Раздал: 13,02 TB
Поблагодарили: 1033
100%
Азилум?

_________________
Прошу отозваться людей, которые считают, что я их недолюбливаю. По возможности буду приходить и долюбливать.
JamesD

Online
Стаж: 6 лет 3 мес.
Сообщений: 255
Ratio: 2,275
Поблагодарили: 540
27.87%
ukraine.gif
Тут хотя бы зомби лучше играют, чем боты из Suicide Squad.
Показать сообщения:   
Начать новую тему   Ответить на тему    Торрент-трекер NNM-Club -> Зарубежное кино -> Фильмы в оригинале (HD) Часовой пояс: GMT + 3
Страница 1 из 1