Интеллигентный торрент-трекер
canvas not supported
Нас вместе: 4 103 344

Смертельная семёрка / Dead 7 (2016) BDRip [H.264/1080p] [EN]


 
 
RSS
Начать новую тему   Ответить на тему    Торрент-трекер NNM-Club -> Зарубежное кино -> Фильмы в оригинале (HD)
Автор Сообщение
smaster67 ®
Модератор Видео
Покровитель талантов Uploader 300+
Стаж: 7 лет 5 мес.
Сообщений: 6256
Ratio: 180,063
Поблагодарили: 173730
100%
Смертельная семёрка / Dead 7 (2016) BDRip [H.264/1080p] [EN]

Производство: США
Жанр: ужасы, комедия, вестерн

Режиссер: Денни Роу
Актеры: Ник Картер, Джефф Тиммонс, Джои Фатоне, Кэрри Киган, Эй Джей МакЛин, Эрик-Майкл Эстрада, Лорен Китт, Хлоя Латтанци, Дебра Уилсон, Хоуи Дороу, Крис Киркпатрик, Джон Секада

Описание:
Это пост-апокалиптический вестерн, в котором группа убийц собирается избавить маленький городок от зомби-чумы.



Продолжительность: 01:28:29
Качество видео: BDRip 1080p
Перевод: Отсутствует
Язык озвучки: Английский

Видео: AVC, 1920x1080 (16:9), 9102 kbps, 23,976 fps, 0,183 bpp
Аудио: английский / DTS / 5.1 / 48 kHz / 1509 kbps / 24 bit
Код: выделить все
General
Unique ID                                Dead 7-1080p.mkv
Format                                   : Matroska
Format version                           : Version 4 / Version 2
File size                                : 6.56 GiB
Duration                                 : 1 h 28 min
Overall bit rate                         : 10.6 Mb/s
Encoded date                             : UTC 2016-10-17 23:13:59
Writing application                      : mkvmerge v9.0.1 ('Obstacles') 64bit
Writing library                          : libebml v1.3.3 + libmatroska v1.4.4

Video
ID                                       : 1
Format                                   : AVC
Format/Info                              : Advanced Video Codec
Format profile                           : High@L4.1
Format settings, CABAC                   : Yes
Format settings, ReFrames                : 4 frames
Codec ID                                 : V_MPEG4/ISO/AVC
Duration                                 : 1 h 28 min
Bit rate                                 : 9 102 kb/s
Width                                    : 1 920 pixels
Height                                   : 1 080 pixels
Display aspect ratio                     : 16:9
Frame rate mode                          : Constant
Frame rate                               : 23.976 (24000/1001) FPS
Color space                              : YUV
Chroma subsampling                       : 4:2:0
Bit depth                                : 8 bits
Scan type                                : Progressive
Bits/(Pixel*Frame)                       : 0.183
Stream size                              : 5.63 GiB (86%)
Writing library                          : x264 core 148 r2705 3f5ed56
Encoding settings                        : cabac=1 / ref=4 / deblock=1:0:0 / analyse=0x3:0x113 / me=umh / subme=7 / psy=1 / psy_rd=1.00:0.00 / mixed_ref=1 / me_range=16 / chroma_me=1 / trellis=1 / 8x8dct=1 / cqm=0 / deadzone=21,11 / fast_pskip=0 / chroma_qp_offset=-2 / threads=12 / lookahead_threads=2 / sliced_threads=0 / nr=0 / decimate=1 / interlaced=0 / bluray_compat=0 / constrained_intra=0 / bframes=3 / b_pyramid=2 / b_adapt=2 / b_bias=0 / direct=3 / weightb=1 / open_gop=0 / weightp=2 / keyint=250 / keyint_min=23 / scenecut=40 / intra_refresh=0 / rc_lookahead=50 / rc=2pass / mbtree=1 / bitrate=9102 / ratetol=1.0 / qcomp=0.60 / qpmin=0 / qpmax=69 / qpstep=4 / cplxblur=20.0 / qblur=0.5 / ip_ratio=1.40 / aq=1:1.00
Default                                  : Yes
Forced                                   : No

Audio
ID                                       : 2
Format                                   : DTS
Format/Info                              : Digital Theater Systems
Mode                                     : 16
Format settings, Endianness              : Big
Codec ID                                 : A_DTS
Duration                                 : 1 h 28 min
Bit rate mode                            : Constant
Bit rate                                 : 1 509 kb/s
Channel(s)                               : 6 channels
Channel positions                        : Front: L C R, Side: L R, LFE
Sampling rate                            : 48.0 kHz
Frame rate                               : 93.750 FPS (512 spf)
Bit depth                                : 24 bits
Compression mode                         : Lossy
Stream size                              : 955 MiB (14%)
Language                                 : English
Default                                  : No
Forced                                   : No

Скриншоты:



Время раздачи: с 13:00 до 23:00
[NNMClub.to]_Dead 7-1080p.mkv.torrent
 Торрент: Золотая раздача  Зарегистрирован
 
Примагнититься
Free Leech
Зарегистрируйтесь и скачайте торрент!
33 KB
 Зарегистрирован:   18 Окт 2016 19:36:46
 Размер:   6,56 GB  (
 Рейтинг:    (Голосов: 7)
 Поблагодарили:   36
 Проверка:   Оформление проверено модератором 18 Окт 2016 19:37:33
Как cкачать  ·  Как раздать  ·  Правильно оформить  ·  Поднять ратио!  
asu-corp
Стаж: 6 лет 1 мес.
Сообщений: 39
Ratio: 14,824
Раздал: 4,076 TB
29.37%
russia.gif
Прямо XXX-Суицид-Сквад!...
Piupiu222
Стаж: 3 года 10 мес.
Сообщений: 187
Ratio: 3,914
60.42%
Фильм дрянь, но лучше "Отряда Вилла Смита".
Показать сообщения:   
Начать новую тему   Ответить на тему    Торрент-трекер NNM-Club -> Зарубежное кино -> Фильмы в оригинале (HD) Часовой пояс: GMT + 3
Страница 1 из 1