Интеллигентный торрент-трекер
canvas not supported
Нас вместе: 4 104 888

Антропоид / Anthropoid (2016) BDRip [H.264/720p] [EN]


 
 
RSS
Начать новую тему   Ответить на тему    Торрент-трекер NNM-Club -> Зарубежное кино -> Фильмы в оригинале (HD)
Автор Сообщение
smaster67 ®
Модератор Видео
Покровитель талантов Uploader 300+
Стаж: 7 лет 5 мес.
Сообщений: 6260
Ratio: 180,123
Поблагодарили: 173849
100%
Антропоид / Anthropoid (2016) BDRip [H.264/720p] [EN]

Производство: Чехия, Великобритания, Франция
Жанр: триллер, военный, биография, история

Режиссер: Шон Эллис
Актеры: Киллиан Мёрфи, Джейми Дорнан, Гарри Ллойд, Тоби Джонс, Шарлотта Ле Бон, Билл Милнер, Сэм Кили, Миш Бойко, Шон Махон, Брайан Каспе

Описание:
Картина рассказывает о ликвидации в годы Второй мировой войны одного из самых зловещих нацистских преступников, начальника Главного управления имперской безопасности третьего рейха Рейнхарда Гейдриха, который при жизни получил прозвище «Пражский мясник».



Продолжительность: 02:00:52
Качество видео: BDRip 720p
Перевод: Отсутствует
Язык озвучки: Английский

Видео: AVC, 1280x536 (2.40:1), 4962 kbps, 23,976 fps, 0,302 bpp
Аудио: английский / DTS / 5.1 / 48 kHz / 1509 kbps / 24 bit
Код: выделить все
General
Unique ID                              Anthropoid.2016.720p.mkv
Format                                   : Matroska
Format version                           : Version 4 / Version 2
File size                                : 5.46 GiB
Duration                                 : 2 h 0 min
Overall bit rate                         : 6 468 kb/s
Encoded date                             : UTC 2016-10-18 23:52:01
Writing application                      : mkvmerge v8.3.0 ('Over the Horizon') 64bit
Writing library                          : libebml v1.3.1 + libmatroska v1.4.2

Video
ID                                       : 1
Format                                   : AVC
Format/Info                              : Advanced Video Codec
Format profile                           : High@L4.1
Format settings, CABAC                   : Yes
Format settings, ReFrames                : 5 frames
Codec ID                                 : V_MPEG4/ISO/AVC
Duration                                 : 2 h 0 min
Bit rate                                 : 4 962 kb/s
Width                                    : 1 280 pixels
Height                                   : 536 pixels
Display aspect ratio                     : 2.40:1
Frame rate mode                          : Constant
Frame rate                               : 23.976 FPS
Color space                              : YUV
Chroma subsampling                       : 4:2:0
Bit depth                                : 8 bits
Scan type                                : Progressive
Bits/(Pixel*Frame)                       : 0.302
Stream size                              : 4.18 GiB (77%)
Writing library                          : x264 core 148 r2705 3f5ed56
Encoding settings                        : cabac=1 / ref=5 / deblock=1:0:0 / analyse=0x3:0x133 / me=umh / subme=7 / psy=1 / psy_rd=1.00:0.00 / mixed_ref=1 / me_range=16 / chroma_me=1 / trellis=1 / 8x8dct=1 / cqm=0 / deadzone=21,11 / fast_pskip=0 / chroma_qp_offset=-2 / threads=17 / lookahead_threads=2 / sliced_threads=0 / nr=0 / decimate=1 / interlaced=0 / bluray_compat=0 / constrained_intra=0 / bframes=3 / b_pyramid=2 / b_adapt=1 / b_bias=0 / direct=1 / weightb=1 / open_gop=0 / weightp=2 / keyint=250 / keyint_min=23 / scenecut=40 / intra_refresh=0 / rc_lookahead=40 / rc=2pass / mbtree=1 / bitrate=4962 / ratetol=1.0 / qcomp=0.60 / qpmin=0 / qpmax=69 / qpstep=4 / cplxblur=20.0 / qblur=0.5 / ip_ratio=1.40 / aq=1:1.00
Language                                 : English
Default                                  : Yes
Forced                                   : No

Audio
ID                                       : 2
Format                                   : DTS
Format/Info                              : Digital Theater Systems
Mode                                     : 16
Format settings, Endianness              : Big
Codec ID                                 : A_DTS
Duration                                 : 2 h 0 min
Bit rate mode                            : Constant
Bit rate                                 : 1 509 kb/s
Channel(s)                               : 6 channels
Channel positions                        : Front: L C R, Side: L R, LFE
Sampling rate                            : 48.0 kHz
Frame rate                               : 93.750 FPS (512 spf)
Bit depth                                : 24 bits
Compression mode                         : Lossy
Stream size                              : 1.27 GiB (23%)
Language                                 : English
Default                                  : Yes
Forced                                   : No

Menu
00:00:00.000                             : en:00:00:00.000
00:08:32.053                             : en:00:08:32.053
00:12:57.860                             : en:00:12:57.860
00:18:48.294                             : en:00:18:48.294
00:24:35.599                             : en:00:24:35.599
00:28:54.107                             : en:00:28:54.107
00:34:02.916                             : en:00:34:02.916
00:39:41.754                             : en:00:39:41.754
00:48:59.103                             : en:00:48:59.103
00:56:04.987                             : en:00:56:04.987
00:59:55.842                             : en:00:59:55.842
01:06:37.535                             : en:01:06:37.535
01:12:14.997                             : en:01:12:14.997
01:17:09.041                             : en:01:17:09.041
01:23:09.693                             : en:01:23:09.693
01:28:13.121                             : en:01:28:13.121
01:32:06.396                             : en:01:32:06.396
01:39:01.769                             : en:01:39:01.769
01:44:39.482                             : en:01:44:39.482
01:54:37.829                             : en:01:54:37.829

Скриншоты:



Время раздачи: с 13:00 до 23:00
[NNMClub.to]_Anthropoid.2016.720p.mkv.torrent
 Торрент: Серебряная раздча  Зарегистрирован
 
Примагнититься
Free Leech
Зарегистрируйтесь и скачайте торрент!
27,5 KB
 Зарегистрирован:   19 Окт 2016 09:53:11
 Размер:   5,46 GB  (
 Рейтинг:   4,7 (Голосов: 10)
 Поблагодарили:   66
 Проверка:   Оформление проверено модератором 19 Окт 2016 09:53:44
Как cкачать  ·  Как раздать  ·  Правильно оформить  ·  Поднять ратио!  
mcczoom
Стаж: 5 лет 1 мес.
Сообщений: 27
Ratio: 11,923
0.65%
canada.gif
Картинка, судя по скринам, совсем мыло.
Показать сообщения:   
Начать новую тему   Ответить на тему    Торрент-трекер NNM-Club -> Зарубежное кино -> Фильмы в оригинале (HD) Часовой пояс: GMT + 3
Страница 1 из 1