Интеллигентный торрент-трекер
canvas not supported
Нас вместе: 4 105 985

Антропоид / Anthropoid (2016) BDRip [H.264/1080p]


Страницы:  1, 2  След. 
 
RSS
Начать новую тему   Ответить на тему    Торрент-трекер NNM-Club -> Горячие новинки -> Новинки (HD)
Автор Сообщение
ElektrAа ®
Модератор Видео
RG Releasers
Uploader 300+
 
Стаж: 5 лет 10 мес.
Сообщений: 2452
Ratio: 14K
Раздал: 490,9 TB
Поблагодарили: 281557
100%
Откуда: Южная столица
ukraine.gif
Антропоид / Anthropoid (2016) BDRip [H.264/1080p]

Производство: Чехия, Великобритания, Франция
Жанр: триллер, военный, биография, история

Режиссер: Шон Эллис
Актеры:
Киллиан Мёрфи, Джейми Дорнан, Гарри Ллойд, Тоби Джонс, Шарлотта Ле Бон, Билл Милнер, Сэм Кили, Миш Бойко, Шон Махон, Брайан Каспе

Описание:
Картина рассказывает о ликвидации в годы Второй мировой войны одного из самых зловещих нацистских преступников, начальника Главного управления имперской безопасности третьего рейха Рейнхарда Гейдриха, который при жизни получил прозвище «Пражский мясник».


Рейтинг MPAA: R (лицам до 17 лет обязательно присутствие взрослого)
Дата мировой премьеры: 1 июля 2016

Продолжительность: 02:00:52
Качество видео: BDRip
Перевод: Профессиональный (многоголосый закадровый) Синема УС
Язык субтитров: Отсутствует
Реклама: Присутствуют голосовые и текстовые вставки рекламы.

Видео: MPEG-4 AVC, 1920x804, 11.8 Мбит/с
Аудио: AC3, 2 ch, 640 Кбит/с
General
Complete name : E:\Anthropoid.2016.P.BDRip.1O8Op (1)-003.mkv
Format : Matroska
File size : 40.4 MiB
Duration : 26s 808ms
Overall bit rate : 12.7 Mbps
Encoded date : UTC 2016-10-20 06:22:29
Writing application : mkvmerge v7.5.0 ('Glass Culture') 32bit built on Jan 4 2015 16:37:25
Writing library : libebml v1.3.1 + libmatroska v1.4.2

Video
ID : 1
Format : AVC
Format/Info : Advanced Video Codec
Format profile : High@L4.1
Format settings, CABAC : Yes
Format settings, ReFrames : 5 frames
Muxing mode : Container profile=Unknown@4.1
Codec ID : V_MPEG4/ISO/AVC
Duration : 26s 792ms
Bit rate : 11.8 Mbps
Width : 1 920 pixels
Height : 804 pixels
Display aspect ratio : 2.35:1
Frame rate : 23.976 fps
Standard : Component
Resolution : 8 bits
Colorimetry : 4:2:0
Scan type : Progressive
Bits/(Pixel*Frame) : 0.318
Stream size : 37.6 MiB (93%)
Color primaries : BT.709-5, BT.1361, IEC 61966-2-4, SMPTE RP177
Transfer characteristics : BT.709-5, BT.1361
Matrix coefficients : BT.709-5, BT.1361, IEC 61966-2-4 709, SMPTE RP177

Audio
ID : 2
Format : AC-3
Format/Info : Audio Coding 3
Codec ID : A_AC3
Duration : 26s 808ms
Bit rate mode : Constant
Bit rate : 640 Kbps
Channel(s) : 2 channels
Channel positions : L R
Sampling rate : 48.0 KHz
Video delay : 24ms
Stream size : 2.05 MiB (5%)
Language : Russian
[/code]

Скриншоты:



Время раздачи: 24/7 круглосуточно
[NNMClub.to]_Anthropoid.2016.P.BDRip.1O8Op.mkv.torrent
 Торрент: Золотая раздача  Зарегистрирован
 
Примагнититься
Free Leech
Зарегистрируйтесь и скачайте торрент!
24,9 KB
 Зарегистрирован:   20 Окт 2016 09:44:34
 Размер:   9,85 GB  (
 Рейтинг:   4,5 (Голосов: 101)
 Поблагодарили:   528
 Проверка:   Оформление проверено модератором 20 Окт 2016 09:51:06
Как cкачать  ·  Как раздать  ·  Правильно оформить  ·  Поднять ратио!  

_________________
«Правила оформления релизов в разделе Видео» | После исправлений - в ЛС


Последний раз редактировалось: ElektrAа (21 Окт 2016 22:09:42), всего редактировалось 1 раз
mike2003
Стаж: 6 лет
Сообщений: 127
Ratio: 7,981
0%
haiti.gif
что то скрины мутные какие то... явно не ХД
alexey3312
Стаж: 5 лет 11 мес.
Сообщений: 430
Ratio: 26,411
Раздал: 7,033 TB
100%
ussr.gif
Спасибо. Вот, с одной стороны хочется узнать как можно больше, а с другой думаешь, лучше б про этих нелюдей ни кто не вспоминал, глядишь и память об этом сброде пропала.....

_________________
Металлисты - это самый развитой и передовой класс, и никто не может отрицать, что это и есть передовой отряд всего пролетариата. В.И. Ленин
romazepa
Стаж: 2 года 7 мес.
Сообщений: 244
Ratio: 6,568
9.87%
krevedko.png
alexey3312 Согласен. Но не знать, как говориться - повторять. Это нужно знать, как про любые смертельные болезни или про то, что не ходи на красный, ходи на зеленый... к сожалению...
teraf​lop20​11​
 
Стаж: 5 лет 9 мес.
Сообщений: 266
Ratio: 0,454
1.07%
mike2003 писал(а): Перейти к сообщению
что то скрины мутные какие то... явно не ХД


Фильмы "про войну" модно снимать на плёнку военных лет ;) Аутентичность...
Pabal
Стаж: 7 лет
Сообщений: 41
Ratio: 7,707
76.55%
russia.gif
Спасибо за релиз, фильм хорош, посмотреть стоит. Местами очень тяжёлые моменты. Я иногда закрывал глаза и затыкал ужи на пару сек. Хотя здоровый мужик, совсем не сентиментальный :плач:
Про рекламу ничего сказать не могу. Смотрел кино и рекламу даже не заметил.
rosco430
Стаж: 1 год 11 мес.
Сообщений: 1
Ratio: 10,699
0%
Спасибо за релиз! Но посмотреть не могу. К сожалению мой древний ICONbit не воспроизводит почему то именно этот фильм, а точнее не находит кодек h264, который только и понимает. Хотя в описании он есть. :незнает:
Nahsaratt
Стаж: 7 лет 6 мес.
Сообщений: 12
Ratio: 1,423
Поблагодарили: 68
0.6%
Опасался что фильм про мясника будет, но оказалось про жизнь сопротивления. Стоит посмотреть.
nugrus
Стаж: 5 лет 10 мес.
Сообщений: 121
Ratio: 15,025
75.28%
Хороший фильм, нехарактерный для последнего времени
SandK05
Стаж: 4 года 9 мес.
Сообщений: 3
Ratio: 7,86
2.07%
Фильм однозначно стоит просмотра. Тяжелый в плане переживаний, оставляет под впечатлением.
_OniX_
Стаж: 5 лет 10 мес.
Сообщений: 150
Ratio: 1,24
0.05%
russia.gif
Хорош, советую к просмотру!
LexPNZ
Стаж: 6 лет 3 мес.
Сообщений: 6
Ratio: 26,704
0%
alexey3312 писал(а): Перейти к сообщению
Спасибо. Вот, с одной стороны хочется узнать как можно больше, а с другой думаешь, лучше б про этих нелюдей ни кто не вспоминал, глядишь и память об этом сброде пропала.....

А ты посмотри как в Палестине дома разлетаются от ракет оккупантов... про это фильмы не снимут, а все видеоматериалы из свободного доступа уберут
KrabKley
Стаж: 5 лет 5 мес.
Сообщений: 15
Ratio: 8,343
1.49%
russia.gif
звук просто отвратителен!
Crater37
Стаж: 7 лет 11 мес.
Сообщений: 30
Ratio: 26,881
34.13%
russia.gif
Шёл 1941-ый год... В Праге группа подпольщиков лишилась связи из-за сгоревшей микросхемы в рации. Переводчик - красавец! А сам фильм вполне себе можно смотреть. Ожидал худшего.
KrabKley писал(а): Перейти к сообщению
звук просто отвратителен!
Согласен! Звук - гуанище полное. Пришлось даже саб выключить из-за постоянного гула.
Vakim
Стаж: 5 лет 7 мес.
Сообщений: 52
Ratio: 0,334
0.56%
russia.gif
Хороший фильм. На основе реальных событий.
Показать сообщения:   
Начать новую тему   Ответить на тему    Торрент-трекер NNM-Club -> Горячие новинки -> Новинки (HD) Часовой пояс: GMT + 3
Страницы:  1, 2  След.
Страница 1 из 2