Интеллигентный торрент-трекер
canvas not supported
Нас вместе: 4 110 578

Абсолютная власть / Imperium (2016) BDRip [H.264/1080p] [EN]


 
 
RSS
Начать новую тему   Ответить на тему    Торрент-трекер NNM-Club -> Зарубежное кино -> Фильмы в оригинале (HD)
Автор Сообщение
smaster67 ®
Модератор Видео
Покровитель талантов Uploader 300+
Стаж: 7 лет 5 мес.
Сообщений: 6270
Ratio: 180,634
Поблагодарили: 174236
100%
Абсолютная власть / Imperium (2016) BDRip [H.264/1080p] [EN]

Производство: США
Жанр: триллер, драма, криминал

Режиссер: Даниэль Рагуссис
Актеры: Дэниэл Рэдклифф, Тони Коллетт, Трэйси Леттс, Сэм Трэммелл, Нестор Карбонелл, Крис Салливан, Сет Нумрик, Павел Шайда, Девин Друид, Берн Горман, Адам Мейер, Роджер Йоусон

Описание:
Агент ФБР под прикрытием внедряется в банду нео-нацистов для предотвращения теракта. Каково это - жить каждый день в потоке насилия и жестокости, отстаивать свое право кулаками, выбрить череп и закрыть душу? Что такое нео-нацизм -это не только хулиганы и скинхеды, но и благополучные господа в дорогих костюмах, готовые уничтожить город ради идеи.



Продолжительность: 01:48:36
Качество видео: BDRip 1080p
Перевод: Отсутствует
Язык озвучки: Английский

Видео: AVC, 1920x808 (2.40:1), 8576 kbps, 23,976 fps, 0,231 bpp
Аудио: английский / DTS / 5.1 / 48 kHz / 1509 kbps / 24 bit
Код: выделить все
General
Unique ID                              Imperium.2016.1080p.mkv
Format                                   : Matroska
Format version                           : Version 4 / Version 2
File size                                : 7.65 GiB
Duration                                 : 1 h 48 min
Overall bit rate                         : 10.1 Mb/s
Encoded date                             : UTC 2016-10-20 01:55:54
Writing application                      : mkvmerge v8.3.0 ('Over the Horizon') 64bit
Writing library                          : libebml v1.3.1 + libmatroska v1.4.2

Video
ID                                       : 1
Format                                   : AVC
Format/Info                              : Advanced Video Codec
Format profile                           : High@L4.1
Format settings, CABAC                   : Yes
Format settings, ReFrames                : 5 frames
Codec ID                                 : V_MPEG4/ISO/AVC
Duration                                 : 1 h 48 min
Bit rate                                 : 8 576 kb/s
Width                                    : 1 920 pixels
Height                                   : 808 pixels
Display aspect ratio                     : 2.40:1
Frame rate mode                          : Constant
Frame rate                               : 23.976 FPS
Color space                              : YUV
Chroma subsampling                       : 4:2:0
Bit depth                                : 8 bits
Scan type                                : Progressive
Bits/(Pixel*Frame)                       : 0.231
Stream size                              : 6.50 GiB (85%)
Writing library                          : x264 core 148 r2705 3f5ed56
Encoding settings                        : cabac=1 / ref=5 / deblock=1:0:0 / analyse=0x3:0x133 / me=umh / subme=7 / psy=1 / psy_rd=1.00:0.00 / mixed_ref=1 / me_range=16 / chroma_me=1 / trellis=1 / 8x8dct=1 / cqm=0 / deadzone=21,11 / fast_pskip=0 / chroma_qp_offset=-2 / threads=12 / lookahead_threads=2 / sliced_threads=0 / nr=0 / decimate=1 / interlaced=0 / bluray_compat=0 / constrained_intra=0 / bframes=3 / b_pyramid=2 / b_adapt=1 / b_bias=0 / direct=1 / weightb=1 / open_gop=0 / weightp=2 / keyint=250 / keyint_min=23 / scenecut=40 / intra_refresh=0 / rc_lookahead=40 / rc=2pass / mbtree=1 / bitrate=8576 / ratetol=1.0 / qcomp=0.60 / qpmin=0 / qpmax=69 / qpstep=4 / cplxblur=20.0 / qblur=0.5 / ip_ratio=1.40 / aq=1:1.00
Language                                 : English
Default                                  : Yes
Forced                                   : No

Audio
ID                                       : 2
Format                                   : DTS
Format/Info                              : Digital Theater Systems
Mode                                     : 16
Format settings, Endianness              : Big
Codec ID                                 : A_DTS
Duration                                 : 1 h 48 min
Bit rate mode                            : Constant
Bit rate                                 : 1 509 kb/s
Channel(s)                               : 6 channels
Channel positions                        : Front: L C R, Side: L R, LFE
Sampling rate                            : 48.0 kHz
Frame rate                               : 93.750 FPS (512 spf)
Bit depth                                : 24 bits
Compression mode                         : Lossy
Stream size                              : 1.14 GiB (15%)
Language                                 : English
Default                                  : Yes
Forced                                   : No

Menu
00:00:00.000                             : en:00:00:00.000
00:07:07.260                             : en:00:07:07.260
00:14:49.680                             : en:00:14:49.680
00:21:11.645                             : en:00:21:11.645
00:27:08.836                             : en:00:27:08.836
00:33:24.002                             : en:00:33:24.002
00:39:43.256                             : en:00:39:43.256
00:46:01.008                             : en:00:46:01.008
00:51:49.565                             : en:00:51:49.565
00:57:56.640                             : en:00:57:56.640
01:05:00.271                             : en:01:05:00.271
01:11:59.899                             : en:01:11:59.899
01:19:28.222                             : en:01:19:28.222
01:26:43.573                             : en:01:26:43.573
01:30:29.799                             : en:01:30:29.799
01:38:49.590                             : en:01:38:49.590

Скриншоты:



Время раздачи: с 13:00 до 23:00
[NNMClub.to]_Imperium.2016.1080p.mkv.torrent
 Торрент: Золотая раздача  Зарегистрирован
 
Примагнититься
Free Leech
Зарегистрируйтесь и скачайте торрент!
38,4 KB
 Зарегистрирован:   20 Окт 2016 14:09:44
 Размер:   7,65 GB  (
 Рейтинг:    (Голосов: 8)
 Поблагодарили:   43
 Проверка:   Оформление проверено модератором 20 Окт 2016 14:10:01
Как cкачать  ·  Как раздать  ·  Правильно оформить  ·  Поднять ратио!  
alebard24
Стаж: 2 года 8 мес.
Сообщений: 304
Ratio: 18,889
Раздал: 18,41 TB
100%
ussr.gif
прекрасно

_________________
Никандр
danava123
Стаж: 8 лет 2 мес.
Сообщений: 33
Ratio: 39,997
100%
Откуда: СССР
honduras.gif
Ну неплохо точно

_________________
Царь прикажет-дураки найдутся
Painshock
Стаж: 4 года 7 мес.
Сообщений: 52
Ratio: 1,672
0.36%
Жду хотя бы двухголосый, ибо проката в РФ нет
Namor88
Стаж: 4 года 1 мес.
Сообщений: 64
Ratio: 2,302
16.46%
Painshock писал(а): Перейти к сообщению
Жду хотя бы двухголосый, ибо проката в РФ нет

Главное чтобы не ден904 с этой его картавой бабой и не Хихикающий доктор. Самые убогие озвучки всегда от этих аматоров.
den-ru801

Online
Стаж: 1 год 11 мес.
Сообщений: 540
Ratio: 676,043
Поблагодарили: 185924
100%
russia.gif
Painshock
Namor88
Абсолютная власть / Imperium (2016) HDRip :смущение:

_________________
Namor88
Стаж: 4 года 1 мес.
Сообщений: 64
Ratio: 2,302
16.46%
den-ru801, благодарю, оперативненько :клево:
VAshdd
Стаж: 3 года 10 мес.
Сообщений: 477
Ratio: 11,014
23.36%
Даже не знаю как его смотреть после швейцарского ножа, слишком свежо воспоминание)
Показать сообщения:   
Начать новую тему   Ответить на тему    Торрент-трекер NNM-Club -> Зарубежное кино -> Фильмы в оригинале (HD) Часовой пояс: GMT + 3
Страница 1 из 1