Интеллигентный торрент-трекер
canvas not supported
Нас вместе: 4 109 265

Абсолютная власть / Imperium (2016) BDRip [H.264/720p] [EN]


 
 
RSS
Начать новую тему   Ответить на тему    Торрент-трекер NNM-Club -> Зарубежное кино -> Фильмы в оригинале (HD)
Автор Сообщение
smaster67 ®
Модератор Видео
Покровитель талантов Uploader 300+
Стаж: 7 лет 5 мес.
Сообщений: 6266
Ratio: 180,498
Поблагодарили: 174103
100%
Абсолютная власть / Imperium (2016) BDRip [H.264/720p] [EN]

Производство: США
Жанр: триллер, драма, криминал

Режиссер: Даниэль Рагуссис
Актеры: Дэниэл Рэдклифф, Тони Коллетт, Трэйси Леттс, Сэм Трэммелл, Нестор Карбонелл, Крис Салливан, Сет Нумрик, Павел Шайда, Девин Друид, Берн Горман, Адам Мейер, Роджер Йоусон

Описание:
Агент ФБР под прикрытием внедряется в банду нео-нацистов для предотвращения теракта. Каково это - жить каждый день в потоке насилия и жестокости, отстаивать свое право кулаками, выбрить череп и закрыть душу? Что такое нео-нацизм -это не только хулиганы и скинхеды, но и благополучные господа в дорогих костюмах, готовые уничтожить город ради идеи.



Продолжительность: 01:48:36
Качество видео: BDRip 720p
Перевод: Отсутствует
Язык озвучки: Английский

Видео: AVC, 1280x536 (2.40:1), 5693 kbps, 23,976 fps, 0,346 bpp
Аудио: английский / DTS / 5.1 / 48 kHz / 1509 kbps / 24 bit
Код: выделить все
General
Unique ID                                Imperium.2016.720p.mkv
Format                                   : Matroska
Format version                           : Version 4 / Version 2
File size                                : 5.47 GiB
Duration                                 : 1 h 48 min
Overall bit rate                         : 7 204 kb/s
Encoded date                             : UTC 2016-10-19 23:03:52
Writing application                      : mkvmerge v8.3.0 ('Over the Horizon') 64bit
Writing library                          : libebml v1.3.1 + libmatroska v1.4.2

Video
ID                                       : 1
Format                                   : AVC
Format/Info                              : Advanced Video Codec
Format profile                           : High@L4.1
Format settings, CABAC                   : Yes
Format settings, ReFrames                : 5 frames
Codec ID                                 : V_MPEG4/ISO/AVC
Duration                                 : 1 h 48 min
Bit rate                                 : 5 693 kb/s
Width                                    : 1 280 pixels
Height                                   : 536 pixels
Display aspect ratio                     : 2.40:1
Frame rate mode                          : Constant
Frame rate                               : 23.976 FPS
Color space                              : YUV
Chroma subsampling                       : 4:2:0
Bit depth                                : 8 bits
Scan type                                : Progressive
Bits/(Pixel*Frame)                       : 0.346
Stream size                              : 4.32 GiB (79%)
Writing library                          : x264 core 148 r2705 3f5ed56
Encoding settings                        : cabac=1 / ref=5 / deblock=1:0:0 / analyse=0x3:0x133 / me=umh / subme=7 / psy=1 / psy_rd=1.00:0.00 / mixed_ref=1 / me_range=16 / chroma_me=1 / trellis=1 / 8x8dct=1 / cqm=0 / deadzone=21,11 / fast_pskip=0 / chroma_qp_offset=-2 / threads=12 / lookahead_threads=2 / sliced_threads=0 / nr=0 / decimate=1 / interlaced=0 / bluray_compat=0 / constrained_intra=0 / bframes=3 / b_pyramid=2 / b_adapt=1 / b_bias=0 / direct=1 / weightb=1 / open_gop=0 / weightp=2 / keyint=250 / keyint_min=23 / scenecut=40 / intra_refresh=0 / rc_lookahead=40 / rc=2pass / mbtree=1 / bitrate=5693 / ratetol=1.0 / qcomp=0.60 / qpmin=0 / qpmax=69 / qpstep=4 / cplxblur=20.0 / qblur=0.5 / ip_ratio=1.40 / aq=1:1.00
Language                                 : English
Default                                  : Yes
Forced                                   : No

Audio
ID                                       : 2
Format                                   : DTS
Format/Info                              : Digital Theater Systems
Mode                                     : 16
Format settings, Endianness              : Big
Codec ID                                 : A_DTS
Duration                                 : 1 h 48 min
Bit rate mode                            : Constant
Bit rate                                 : 1 509 kb/s
Channel(s)                               : 6 channels
Channel positions                        : Front: L C R, Side: L R, LFE
Sampling rate                            : 48.0 kHz
Frame rate                               : 93.750 FPS (512 spf)
Bit depth                                : 24 bits
Compression mode                         : Lossy
Stream size                              : 1.14 GiB (21%)
Language                                 : English
Default                                  : Yes
Forced                                   : No

Menu
00:00:00.000                             : en:00:00:00.000
00:07:07.260                             : en:00:07:07.260
00:14:49.680                             : en:00:14:49.680
00:21:11.645                             : en:00:21:11.645
00:27:08.836                             : en:00:27:08.836
00:33:24.002                             : en:00:33:24.002
00:39:43.256                             : en:00:39:43.256
00:46:01.008                             : en:00:46:01.008
00:51:49.565                             : en:00:51:49.565
00:57:56.640                             : en:00:57:56.640
01:05:00.271                             : en:01:05:00.271
01:11:59.899                             : en:01:11:59.899
01:19:28.222                             : en:01:19:28.222
01:26:43.573                             : en:01:26:43.573
01:30:29.799                             : en:01:30:29.799
01:38:49.590                             : en:01:38:49.590

Скриншоты:



Время раздачи: с 13:00 до 23:00
[NNMClub.to]_Imperium.2016.720p.mkv.torrent
 Торрент: Серебряная раздча  Зарегистрирован
 
Примагнититься
Free Leech
Зарегистрируйтесь и скачайте торрент!
27,5 KB
 Зарегистрирован:   20 Окт 2016 14:35:59
 Размер:   5,47 GB  (
 Рейтинг:    (Голосов: 7)
 Поблагодарили:   50
 Проверка:   Оформление проверено модератором 20 Окт 2016 14:36:22
Как cкачать  ·  Как раздать  ·  Правильно оформить  ·  Поднять ратио!  
GoodK​oteyk​a​
Стаж: 4 года 4 мес.
Сообщений: 158
Ratio: 9,028
87.74%
serbia.gif
Как скоро перевод появится?
coperhead
Стаж: 6 лет
Сообщений: 30
Ratio: 5,479
13.77%
Откуда: Morshansk
russia.gif
Я думал на обложке Чико из "Лучше звоните Солу". Рэдклифф удивляет.
daugratman
Стаж: 2 года
Сообщений: 23
Ratio: 2,728
3.5%
Это же Ваас Монтенегро
onezzz
Стаж: 4 года 5 мес.
Сообщений: 32
Ratio: 4,211
1.22%
это Гари Потер чтьоль?
mcczoom
Стаж: 5 лет 1 мес.
Сообщений: 27
Ratio: 11,935
0.65%
canada.gif
Не стал качать только потому, что на протяжении всего трейлера у Поттера лицо будто он вот-вот расплачется. Не понял смысла изображения такого образа плаксивого наци.
Показать сообщения:   
Начать новую тему   Ответить на тему    Торрент-трекер NNM-Club -> Зарубежное кино -> Фильмы в оригинале (HD) Часовой пояс: GMT + 3
Страница 1 из 1