Интеллигентный торрент-трекер
canvas not supported
Нас вместе: 4 105 790

Мистер Черч / Mr. Church (2016) BDRip [H.264/720p] [EN]


 
 
RSS
Начать новую тему   Ответить на тему    Торрент-трекер NNM-Club -> Зарубежное кино -> Фильмы в оригинале (HD)
Автор Сообщение
smaster67 ®
Модератор Видео
Покровитель талантов Uploader 300+
Стаж: 7 лет 5 мес.
Сообщений: 6265
Ratio: 180,228
Поблагодарили: 173963
100%
Мистер Черч / Mr. Church (2016) BDRip [H.264/720p] [EN]

Производство: США
Жанр: драма

Режиссер: Брюс Бересфорд
Актеры: Эдди Мёрфи, Бритт Робертсон, Наташа МакЭлхоун, Завьер Сэмюэл, Люси Фрай, Кристиан Мэдсен, МакКенна Грейс, Натали Кофлин, Мэдисон Вульф, Линкольн Мелчер, Кэтлин МакМартин, Сара Ширер

Описание:
Картина рассказывает о дружбе и почти семейных отношениях между двумя белыми женщинами, матерью и дочерью, и их чернокожим поваром по имени мистер Чёрч.



Продолжительность: 01:45:21
Качество видео: BDRip 720p
Перевод: Отсутствует
Язык озвучки: Английский

Видео: AVC, 1280x688 (1.85:1), 5915 kbps, 23,976 fps, 0,280 bpp
Аудио: английский / DTS / 5.1 / 48 kHz / 1509 kbps / 24 bit
Код: выделить все
General
Unique ID                               Mr. Church.2016.720p.mkv
Format                                   : Matroska
Format version                           : Version 4 / Version 2
File size                                : 5.46 GiB
Duration                                 : 1 h 45 min
Overall bit rate                         : 7 424 kb/s
Encoded date                             : UTC 2016-10-21 02:56:58
Writing application                      : mkvmerge v8.3.0 ('Over the Horizon') 64bit
Writing library                          : libebml v1.3.1 + libmatroska v1.4.2

Video
ID                                       : 1
Format                                   : AVC
Format/Info                              : Advanced Video Codec
Format profile                           : High@L4.1
Format settings, CABAC                   : Yes
Format settings, ReFrames                : 5 frames
Codec ID                                 : V_MPEG4/ISO/AVC
Duration                                 : 1 h 45 min
Bit rate                                 : 5 915 kb/s
Width                                    : 1 280 pixels
Height                                   : 688 pixels
Display aspect ratio                     : 1.85:1
Frame rate mode                          : Constant
Frame rate                               : 23.976 FPS
Color space                              : YUV
Chroma subsampling                       : 4:2:0
Bit depth                                : 8 bits
Scan type                                : Progressive
Bits/(Pixel*Frame)                       : 0.280
Stream size                              : 4.35 GiB (80%)
Writing library                          : x264 core 148 r2692 64f4e24
Encoding settings                        : cabac=1 / ref=5 / deblock=1:0:0 / analyse=0x3:0x133 / me=umh / subme=7 / psy=1 / psy_rd=1.00:0.00 / mixed_ref=1 / me_range=16 / chroma_me=1 / trellis=1 / 8x8dct=1 / cqm=0 / deadzone=21,11 / fast_pskip=0 / chroma_qp_offset=-2 / threads=18 / lookahead_threads=3 / sliced_threads=0 / nr=0 / decimate=1 / interlaced=0 / bluray_compat=0 / constrained_intra=0 / bframes=3 / b_pyramid=2 / b_adapt=1 / b_bias=0 / direct=1 / weightb=1 / open_gop=0 / weightp=2 / keyint=250 / keyint_min=23 / scenecut=40 / intra_refresh=0 / rc_lookahead=40 / rc=2pass / mbtree=1 / bitrate=5915 / ratetol=1.0 / qcomp=0.60 / qpmin=0 / qpmax=69 / qpstep=4 / cplxblur=20.0 / qblur=0.5 / ip_ratio=1.40 / aq=1:1.00
Language                                 : English
Default                                  : Yes
Forced                                   : No

Audio
ID                                       : 2
Format                                   : DTS
Format/Info                              : Digital Theater Systems
Mode                                     : 16
Format settings, Endianness              : Big
Codec ID                                 : A_DTS
Duration                                 : 1 h 45 min
Bit rate mode                            : Constant
Bit rate                                 : 1 509 kb/s
Channel(s)                               : 6 channels
Channel positions                        : Front: L C R, Side: L R, LFE
Sampling rate                            : 48.0 kHz
Frame rate                               : 93.750 FPS (512 spf)
Bit depth                                : 24 bits
Compression mode                         : Lossy
Stream size                              : 1.11 GiB (20%)
Language                                 : English
Default                                  : Yes
Forced                                   : No

Menu
00:00:00.000                             : en:00:00:00.000
00:06:53.079                             : en:00:06:53.079
00:14:00.757                             : en:00:14:00.757
00:19:03.476                             : en:00:19:03.476
00:25:40.581                             : en:00:25:40.581
00:32:06.925                             : en:00:32:06.925
00:39:27.407                             : en:00:39:27.407
00:45:19.467                             : en:00:45:19.467
00:52:04.872                             : en:00:52:04.872
00:58:31.675                             : en:00:58:31.675
01:05:30.135                             : en:01:05:30.135
01:12:44.944                             : en:01:12:44.944
01:19:32.935                             : en:01:19:32.935
01:24:59.678                             : en:01:24:59.678
01:31:08.296                             : en:01:31:08.296
01:38:25.108                             : en:01:38:25.108

Скриншоты:



Время раздачи: с 13:00 до 23:00
[NNMClub.to]_Mr. Church.2016.720p.mkv.torrent
 Торрент: Серебряная раздча  Зарегистрирован
 
Примагнититься
Free Leech
Зарегистрируйтесь и скачайте торрент!
27,5 KB
 Зарегистрирован:   21 Окт 2016 09:31:09
 Размер:   5,46 GB  (
 Рейтинг:   4,1 (Голосов: 13)
 Поблагодарили:   49
 Проверка:   Оформление проверено модератором 21 Окт 2016 09:31:25
Как cкачать  ·  Как раздать  ·  Правильно оформить  ·  Поднять ратио!  
Corban_jum
Стаж: 6 лет 6 мес.
Сообщений: 203
Ratio: 12,731
Раздал: 12,66 TB
12.61%
ukraine.gif
Описание как к порно))
Iv4493rk
Стаж: 3 года 3 мес.
Сообщений: 11
Ratio: 2,453
0%
Corban_jum писал(а): Перейти к сообщению
Описание как к порно))

:смех: 100%
Angel​inaGu​bzhok​ova​
Стаж: 2 года
Сообщений: 44
Ratio: 13,31
55.07%
фильм о жизни людей, я рыдала, очень трогательное кино. любителям покемонов мимо
kostet555
Стаж: 5 лет 6 мес.
Сообщений: 8
Ratio: 3,09
64.23%
Такой примитивный сюжет, жалко потраченного времени. Все люди в фильме предсказуемы либо неадекватны в своих действиях. Чушь.
shami​l2014​74​
Стаж: 2 года 1 мес.
Сообщений: 1
Ratio: 7,386
1.51%
очень хороший, и трогательный фильм.
paladin_ru
Стаж: 6 лет 4 мес.
Сообщений: 41
Ratio: 2,548
Раздал: 1,406 TB
Поблагодарили: 49
18.89%
Откуда: Краснодар
russia.gif
судя по двум последним комментам - фильм (как обычно) "на любителя"...
Показать сообщения:   
Начать новую тему   Ответить на тему    Торрент-трекер NNM-Club -> Зарубежное кино -> Фильмы в оригинале (HD) Часовой пояс: GMT + 3
Страница 1 из 1