Интеллигентный торрент-трекер
canvas not supported
Нас вместе: 4 102 521

Девять жизней / Nine Lives (2016) BDRip [H.264/720p] [EN]


 
 
RSS
Начать новую тему   Ответить на тему    Торрент-трекер NNM-Club -> Зарубежное кино -> Фильмы в оригинале (HD)
Автор Сообщение
smaster67 ®
Модератор Видео
Покровитель талантов Uploader 300+
Стаж: 7 лет 5 мес.
Сообщений: 6254
Ratio: 180,024
Поблагодарили: 173675
100%
Девять жизней / Nine Lives (2016) BDRip [H.264/720p] [EN]

Производство: Франция, Китай
Жанр: фэнтези, комедия, семейный

Режиссер: Барри Зонненфельд
Актеры: Кевин Спейси, Дженнифер Гарнер, Робби Амелл, Шерил Хайнс, Марк Консуэлос, Малина Вайсман, Кристофер Уокен, Талита Бейтман, Тедди Сирс, Джей Пэттерсон, Джевелл Блэкман, Серж Уд

Описание:
Том Бренд - миллиардер-трудоголик с чудинкой. Он с головой погружен в работу и немного выпал из семейной жизни - даже подарок дочери он покупает в последний момент. Ребекка мечтает о настоящем коте, и как бы Том ни презирал животных, он отправляется в зоомагазин, где выбирает самого роскошного кота по кличке Мистер Пушистые Штаны. В спешке на праздник дочери Том попадает в аварию, а очнувшись, обнаруживает себя в теле этого самого кота. Пока Том-человек отсыпается в больнице, Том-Пушистые Штаны вынужден на собственной шкуре испытать все прелести кошачьей жизни и вернуть любовь семьи, чтобы не остаться навсегда в роли питомца. Благо, жена и дочь принимают кота как родного. Но как заставить их разглядеть в Мистере Пушистые Штаны раскаявшегося отца семейства?



Продолжительность: 01:26:50
Качество видео: BDRip 720p
Перевод: Отсутствует
Язык озвучки: Английский

Видео: AVC, 1280x696 (1.85:1), 5695 kbps, 23,976 fps, 0,267 bpp
Аудио: английский / DTS / 5.1 / 48 kHz / 1509 kbps / 24 bit
Код: выделить все
General
Unique ID                               Nine.Lives.2016.720p.mkv
Format                                   : Matroska
Format version                           : Version 4 / Version 2
File size                                : 4.36 GiB
Duration                                 : 1 h 26 min
Overall bit rate                         : 7 190 kb/s
Encoded date                             : UTC 2016-10-20 21:54:16
Writing application                      : mkvmerge v8.3.0 ('Over the Horizon') 64bit
Writing library                          : libebml v1.3.1 + libmatroska v1.4.2

Video
ID                                       : 1
Format                                   : AVC
Format/Info                              : Advanced Video Codec
Format profile                           : High@L4.1
Format settings, CABAC                   : Yes
Format settings, ReFrames                : 5 frames
Codec ID                                 : V_MPEG4/ISO/AVC
Duration                                 : 1 h 26 min
Bit rate                                 : 5 695 kb/s
Width                                    : 1 280 pixels
Height                                   : 696 pixels
Display aspect ratio                     : 1.85:1
Frame rate mode                          : Constant
Frame rate                               : 23.976 FPS
Color space                              : YUV
Chroma subsampling                       : 4:2:0
Bit depth                                : 8 bits
Scan type                                : Progressive
Bits/(Pixel*Frame)                       : 0.267
Stream size                              : 3.44 GiB (79%)
Writing library                          : x264 core 148 r2705 3f5ed56
Encoding settings                        : cabac=1 / ref=5 / deblock=1:0:0 / analyse=0x3:0x133 / me=umh / subme=7 / psy=1 / psy_rd=1.00:0.00 / mixed_ref=1 / me_range=16 / chroma_me=1 / trellis=1 / 8x8dct=1 / cqm=0 / deadzone=21,11 / fast_pskip=0 / chroma_qp_offset=-2 / threads=12 / lookahead_threads=2 / sliced_threads=0 / nr=0 / decimate=1 / interlaced=0 / bluray_compat=0 / constrained_intra=0 / bframes=3 / b_pyramid=2 / b_adapt=1 / b_bias=0 / direct=1 / weightb=1 / open_gop=0 / weightp=2 / keyint=250 / keyint_min=23 / scenecut=40 / intra_refresh=0 / rc_lookahead=40 / rc=2pass / mbtree=1 / bitrate=5695 / ratetol=1.0 / qcomp=0.60 / qpmin=0 / qpmax=69 / qpstep=4 / cplxblur=20.0 / qblur=0.5 / ip_ratio=1.40 / aq=1:1.00
Language                                 : English
Default                                  : Yes
Forced                                   : No

Audio
ID                                       : 2
Format                                   : DTS
Format/Info                              : Digital Theater Systems
Mode                                     : 16
Format settings, Endianness              : Big
Codec ID                                 : A_DTS
Duration                                 : 1 h 26 min
Bit rate mode                            : Constant
Bit rate                                 : 1 509 kb/s
Channel(s)                               : 6 channels
Channel positions                        : Front: L C R, Side: L R, LFE
Sampling rate                            : 48.0 kHz
Frame rate                               : 93.750 FPS (512 spf)
Bit depth                                : 24 bits
Compression mode                         : Lossy
Stream size                              : 937 MiB (21%)
Language                                 : English
Default                                  : Yes
Forced                                   : No

Menu
00:00:00.000                             : en:00:00:00.000
00:09:57.472                             : en:00:09:57.472
00:20:21.011                             : en:00:20:21.011
00:30:52.851                             : en:00:30:52.851
00:39:22.277                             : en:00:39:22.277
00:49:29.300                             : en:00:49:29.300
01:00:11.775                             : en:01:00:11.775
01:09:54.649                             : en:01:09:54.649
01:19:27.888                             : en:01:19:27.888

Скриншоты:



Время раздачи: с 13:00 до 23:00
[NNMClub.to]_Nine.Lives.2016.720p.mkv.torrent
 Торрент: Серебряная раздча  Зарегистрирован
 
Примагнититься
Free Leech
Зарегистрируйтесь и скачайте торрент!
22 KB
 Зарегистрирован:   21 Окт 2016 09:43:00
 Размер:   4,36 GB  (
 Рейтинг:   4,1 (Голосов: 14)
 Поблагодарили:   77
 Проверка:   Оформление проверено модератором 21 Окт 2016 09:43:25
Как cкачать  ·  Как раздать  ·  Правильно оформить  ·  Поднять ратио!  
Canquote
Стаж: 3 года 10 мес.
Сообщений: 21
Ratio: 3,788
5.86%
Охота посмотреть, быстрей бы на русском
Real_XZ
Стаж: 6 лет 5 мес.
Сообщений: 110
Ratio: 5,444
70.81%
russia.gif
Давай больше релизов, с разницей в пол мегабайта и все на английском, больше, давай больше....
VAshdd

Online
Стаж: 3 года 10 мес.
Сообщений: 476
Ratio: 10,988
23.43%
Не знаю за что его загоняют в минуса, единственное, что раздражало, это очень часто вопящий кот. На разок пойдет глянуть.

Спасибо!
JamesD
Стаж: 6 лет 3 мес.
Сообщений: 249
Ratio: 2,273
Поблагодарили: 540
28.67%
ukraine.gif
VAshdd писал(а): Перейти к сообщению
Не знаю за что его загоняют в минуса, единственное, что раздражало, это очень часто вопящий кот. На разок пойдет глянуть.

Спасибо!

Ну хотя бы потому, что сына героя перед прыжком показали 20 раз с 4-х разных ракурсов без какого-либо намека на петельку сумочки даже, а потом БАЦ - целый парашут материализовался уже в полете.

В общем - очень для детей, хотя если делать нечего - посмотреть можно... если не нервные ибо меня тоже запарило громкое мяуканье.
akamay
Стаж: 4 года 5 мес.
Сообщений: 368
Ratio: 12,827
70.52%
Откуда: Горно​-Алта​йск​
ussr.gif
Бвстрее делайте на русском плиз. Кошки - наше все

_________________
а что толку, все равно все бессмысленно
ссссс
Стаж: 6 лет 10 мес.
Сообщений: 86
Ratio: 8,241
5.21%
russia.gif
akamay писал(а): Перейти к сообщению
Бвстрее делайте на русском плиз. Кошки - наше все

Canquote писал(а): Перейти к сообщению
Охота посмотреть, быстрей бы на русском

Люди с токсоплазмозом - лечитесь уже! :стрельба:
akamay
Стаж: 4 года 5 мес.
Сообщений: 368
Ratio: 12,827
70.52%
Откуда: Горно​-Алта​йск​
ussr.gif
ссссс да уж, почитал "Заразиться можно при чистке лотка кошки руками без перчаток"

_________________
а что толку, все равно все бессмысленно
Показать сообщения:   
Начать новую тему   Ответить на тему    Торрент-трекер NNM-Club -> Зарубежное кино -> Фильмы в оригинале (HD) Часовой пояс: GMT + 3
Страница 1 из 1