Интеллигентный торрент-трекер
canvas not supported
Нас вместе: 4 112 303

Очень плохие мамочки / Bad Moms (2016) BDRemux [H.264/1080p] [EN / EN, Fr, Sp Sub]


 
 
RSS
Начать новую тему   Ответить на тему    Торрент-трекер NNM-Club -> Зарубежное кино -> Фильмы в оригинале (HD)
Автор Сообщение
smaster67 ®
Модератор Видео
Покровитель талантов Uploader 300+
Стаж: 7 лет 5 мес.
Сообщений: 6275
Ratio: 180,734
Поблагодарили: 174340
100%
Очень плохие мамочки / Bad Moms (2016) BDRemux [H.264/1080p] [EN / EN, Fr, Sp Sub]

Производство: США
Жанр: комедия

Режиссер: Джон Лукас , Скотт Мур
Актеры: Мила Кунис, Кэтрин Хан, Кристен Белл, Кристина Эпплгейт, Джада Пинкетт Смит, Энни Мумоло, Уна Лоуренс, Эмджей Энтони, Дэвид Уолтон, Кларк Дьюк, Джей Эрнандес, Уенделл Пирс

Описание:
Идеальная мать, прекрасная жена, хорошая домохозяйка с успешной карьерой... Но стоит немного расслабиться, как тебе сразу напоминают о твоих обязанностях. Почему только мужчины имеют право развлекаться? Сколько же можно это терпеть?! Пора команде отчаянных мамочек пуститься во все тяжкие.



Продолжительность: 01:40:57
Качество видео: BDRemux
Перевод: Отсутствует
Язык озвучки: Английский
Язык субтитров: английский, французский, испанский
Вид субтитров: Вшитые

Видео: AVC, 1920x1080 (16:9), 29680 kbps, 23,976 fps, 0,597 bpp
Аудио: английский / DTS-HD / 7.1 / 48 kHz / 4137 kbps / 24 bit
Код: выделить все
General
Unique ID                                Bad.Moms.2016.REMUX.1080p.BluRay.AVC.DTS-HD.MA7.1-iFT\Bad.Moms.2016.REMUX.1080p.BluRay.AVC.DTS-HD.MA7.1-iFT.mkv
Format                                   : Matroska
Format version                           : Version 4 / Version 2
File size                                : 23.9 GiB
Duration                                 : 1 h 40 min
Overall bit rate mode                    : Variable
Overall bit rate                         : 33.9 Mb/s
Encoded date                             : UTC 2016-10-21 05:19:33
Writing application                      : mkvmerge v8.9.0 ('Father Daughter') 64bit
Writing library                          : libebml v1.3.3 + libmatroska v1.4.4

Video
ID                                       : 1
Format                                   : AVC
Format/Info                              : Advanced Video Codec
Format profile                           : High@L4.1
Format settings, CABAC                   : Yes
Format settings, ReFrames                : 4 frames
Codec ID                                 : V_MPEG4/ISO/AVC
Duration                                 : 1 h 40 min
Bit rate mode                            : Variable
Bit rate                                 : 29.7 Mb/s
Maximum bit rate                         : 33.0 Mb/s
Width                                    : 1 920 pixels
Height                                   : 1 080 pixels
Display aspect ratio                     : 16:9
Frame rate mode                          : Constant
Frame rate                               : 23.976 (24000/1001) FPS
Color space                              : YUV
Chroma subsampling                       : 4:2:0
Bit depth                                : 8 bits
Scan type                                : Progressive
Bits/(Pixel*Frame)                       : 0.597
Stream size                              : 20.9 GiB (88%)
Default                                  : Yes
Forced                                   : No

Audio
ID                                       : 2
Format                                   : DTS
Format/Info                              : Digital Theater Systems
Format profile                           : MA / Core
Mode                                     : 16
Format settings, Endianness              : Big
Codec ID                                 : A_DTS
Duration                                 : 1 h 40 min
Bit rate mode                            : Variable / Constant
Bit rate                                 : 4 137 kb/s / 1 509 kb/s
Channel(s)                               : 8 channels / 6 channels
Channel positions                        : Front: L C R, Side: L R, Back: L R, LFE / Front: L C R, Side: L R, LFE
Sampling rate                            : 48.0 kHz
Frame rate                               : 93.750 FPS (512 spf)
Bit depth                                : 24 bits
Compression mode                         : Lossless / Lossy
Stream size                              : 2.92 GiB (12%)
Title                                    : English
Language                                 : English
Default                                  : Yes
Forced                                   : No

Text #1
ID                                       : 3
Format                                   : PGS
Muxing mode                              : zlib
Codec ID                                 : S_HDMV/PGS
Codec ID/Info                            : Picture based subtitle format used on BDs/HD-DVDs
Duration                                 : 1 h 35 min
Bit rate                                 : 18.9 kb/s
Count of elements                        : 4146
Stream size                              : 12.8 MiB (0%)
Title                                    : English-SDH
Language                                 : English
Default                                  : Yes
Forced                                   : No

Text #2
ID                                       : 4
Format                                   : PGS
Muxing mode                              : zlib
Codec ID                                 : S_HDMV/PGS
Codec ID/Info                            : Picture based subtitle format used on BDs/HD-DVDs
Duration                                 : 1 h 39 min
Bit rate                                 : 14.5 kb/s
Count of elements                        : 3573
Stream size                              : 10.3 MiB (0%)
Title                                    : French
Language                                 : French
Default                                  : No
Forced                                   : No

Text #3
ID                                       : 5
Format                                   : PGS
Muxing mode                              : zlib
Codec ID                                 : S_HDMV/PGS
Codec ID/Info                            : Picture based subtitle format used on BDs/HD-DVDs
Duration                                 : 1 h 39 min
Bit rate                                 : 14.5 kb/s
Count of elements                        : 3579
Stream size                              : 10.4 MiB (0%)
Title                                    : Spanish
Language                                 : Spanish
Default                                  : No
Forced                                   : No

Menu
00:00:00.000                             : en:00:00:00.000
00:04:58.548                             : en:00:04:58.548
00:09:17.056                             : en:00:09:17.056
00:16:04.839                             : en:00:16:04.839
00:21:45.221                             : en:00:21:45.221
00:26:46.271                             : en:00:26:46.271
00:29:36.149                             : en:00:29:36.149
00:35:35.508                             : en:00:35:35.508
00:39:20.900                             : en:00:39:20.900
00:44:41.012                             : en:00:44:41.012
00:48:33.202                             : en:00:48:33.202
00:53:43.178                             : en:00:53:43.178
00:59:08.503                             : en:00:59:08.503
01:04:24.110                             : en:01:04:24.110
01:08:55.882                             : en:01:08:55.882
01:14:03.856                             : en:01:14:03.856
01:18:57.358                             : en:01:18:57.358
01:23:48.982                             : en:01:23:48.982
01:26:58.713                             : en:01:26:58.713
01:32:59.073                             : en:01:32:59.073

Скриншоты:



Время раздачи: с 13:00 до 23:00
[NNMClub.to]_Bad.Moms.2016.REMUX.1080p.BluRay.AVC.DTS-HD.MA7.1-iFT.mkv.torrent
 Торрент: Золотая раздача  Зарегистрирован
 
Примагнититься
Free Leech
Зарегистрируйтесь и скачайте торрент!
120 KB
 Зарегистрирован:   21 Окт 2016 11:25:52
 Размер:   23,9 GB  (
 Рейтинг:   4,2 (Голосов: 11)
 Поблагодарили:   41
 Проверка:   Оформление проверено модератором 21 Окт 2016 11:26:25
Как cкачать  ·  Как раздать  ·  Правильно оформить  ·  Поднять ратио!  
Показать сообщения:   
Начать новую тему   Ответить на тему    Торрент-трекер NNM-Club -> Зарубежное кино -> Фильмы в оригинале (HD) Часовой пояс: GMT + 3
Страница 1 из 1