Интеллигентный торрент-трекер
canvas not supported
Нас вместе: 4 110 864

Стартрек: Бесконечность / Star Trek Beyond (2016) BDRemux [H.264/1080p] [EN / EN, Fr, Sp, Po Sub]


 
 
RSS
Начать новую тему   Ответить на тему    Торрент-трекер NNM-Club -> Зарубежное кино -> Фильмы в оригинале (HD)
Автор Сообщение
smaster67 ®
Модератор Видео
Покровитель талантов Uploader 300+
Стаж: 7 лет 5 мес.
Сообщений: 6270
Ratio: 180,662
Поблагодарили: 174249
100%
Стартрек: Бесконечность / Star Trek Beyond (2016) BDRemux [H.264/1080p] [EN / EN, Fr, Sp, Po Sub]

Производство: США
Жанр: фантастика, боевик, триллер, приключения

Режиссер: Джастин Лин
Актеры: Крис Пайн, Закари Куинто, Саймон Пегг, Карл Урбан, Зои Салдана, Джон Чо, Антон Ельчин, Идрис Эльба, София Бутелла, Джо Таслим, Лидия Уилсон, Дип Рой

Описание:
Бесстрашная команда крейсера Звездного Флота «Энтерпрайз» исследует неизведанные глубины космоса. Во время этого полного опасностей путешествия герои сталкиваются с таинственной силой, ставящей под угрозу не только их миссию и стабильность Федерации, но и весь миропорядок.



Продолжительность: 02:02:22
Качество видео: BDRemux
Перевод: Отсутствует
Язык озвучки: Английский
Язык субтитров: английский, французский, португальский, испанский
Вид субтитров: Вшитые

Видео: AVC, 1920x1080 (16:9), 26821 kbps, 23,976 fps, 0,539 bpp
Аудио №1: английский / Atmos / TrueHD / 4367 kbps / 7.1 / 48.0 kHz
Аудио №2: английский / AC3 / 5.1 / 48 kHz / 640 kbps /
Код: выделить все
General
Unique ID                                Star.Trek.Beyond.2016.REMUX.1080p.BluRay.AVC.TrueHD7.1.Atmos-iFT\Star.Trek.Beyond.2016.REMUX.1080p.BluRay.AVC.TrueHD7.1.Atmos-iFT.mkv
Format                                   : Matroska
Format version                           : Version 4 / Version 2
File size                                : 27.3 GiB
Duration                                 : 2 h 2 min
Overall bit rate mode                    : Variable
Overall bit rate                         : 31.9 Mb/s
Encoded date                             : UTC 2016-10-21 06:38:00
Writing application                      : mkvmerge v8.9.0 ('Father Daughter') 64bit
Writing library                          : libebml v1.3.3 + libmatroska v1.4.4

Video
ID                                       : 1
Format                                   : AVC
Format/Info                              : Advanced Video Codec
Format profile                           : High@L4.1
Format settings, CABAC                   : Yes
Format settings, ReFrames                : 4 frames
Codec ID                                 : V_MPEG4/ISO/AVC
Duration                                 : 2 h 2 min
Bit rate mode                            : Variable
Bit rate                                 : 26.8 Mb/s
Maximum bit rate                         : 30.0 Mb/s
Width                                    : 1 920 pixels
Height                                   : 1 080 pixels
Display aspect ratio                     : 16:9
Frame rate mode                          : Constant
Frame rate                               : 23.976 (24000/1001) FPS
Color space                              : YUV
Chroma subsampling                       : 4:2:0
Bit depth                                : 8 bits
Scan type                                : Progressive
Bits/(Pixel*Frame)                       : 0.539
Stream size                              : 22.9 GiB (84%)
Default                                  : No
Forced                                   : No

Audio #1
ID                                       : 2
Format                                   : Atmos / TrueHD
Codec ID                                 : A_TRUEHD
Duration                                 : 2 h 2 min
Bit rate mode                            : Variable
Bit rate                                 : 4 367 kb/s
Maximum bit rate                         : 7 641 kb/s
Channel(s)                               : Object Based / 8 channels
Channel positions                        : Object Based / Front: L C R, Side: L R, Back: L R, LFE
Sampling rate                            :  / 48.0 kHz
Frame rate                               : 1 200.000 FPS (40 spf)
Compression mode                         : Lossless
Stream size                              : 3.73 GiB (14%)
Title                                    : English
Language                                 : English
Default                                  : Yes
Forced                                   : No

Audio #2
ID                                       : 3
Format                                   : AC-3
Format/Info                              : Audio Coding 3
Mode extension                           : CM (complete main)
Format settings, Endianness              : Big
Codec ID                                 : A_AC3
Duration                                 : 2 h 2 min
Bit rate mode                            : Constant
Bit rate                                 : 640 kb/s
Channel(s)                               : 6 channels
Channel positions                        : Front: L C R, Side: L R, LFE
Sampling rate                            : 48.0 kHz
Frame rate                               : 31.250 FPS (1536 spf)
Compression mode                         : Lossy
Stream size                              : 560 MiB (2%)
Title                                    : English
Language                                 : English
Default                                  : No
Forced                                   : No

Text #1
ID                                       : 4
Format                                   : PGS
Muxing mode                              : zlib
Codec ID                                 : S_HDMV/PGS
Codec ID/Info                            : Picture based subtitle format used on BDs/HD-DVDs
Duration                                 : 1 h 51 min
Bit rate                                 : 10.1 kb/s
Count of elements                        : 2532
Stream size                              : 8.05 MiB (0%)
Title                                    : English-PGS
Language                                 : English
Default                                  : Yes
Forced                                   : No

Text #2
ID                                       : 5
Format                                   : PGS
Muxing mode                              : zlib
Codec ID                                 : S_HDMV/PGS
Codec ID/Info                            : Picture based subtitle format used on BDs/HD-DVDs
Duration                                 : 1 h 51 min
Bit rate                                 : 12.0 kb/s
Count of elements                        : 3054
Stream size                              : 9.60 MiB (0%)
Title                                    : English-SDH
Language                                 : English
Default                                  : No
Forced                                   : No

Text #3
ID                                       : 6
Format                                   : PGS
Muxing mode                              : zlib
Codec ID                                 : S_HDMV/PGS
Codec ID/Info                            : Picture based subtitle format used on BDs/HD-DVDs
Duration                                 : 1 h 54 min
Bit rate                                 : 10.1 kb/s
Count of elements                        : 2910
Stream size                              : 8.25 MiB (0%)
Title                                    : French-PGS
Language                                 : French
Default                                  : No
Forced                                   : No

Text #4
ID                                       : 7
Format                                   : PGS
Muxing mode                              : zlib
Codec ID                                 : S_HDMV/PGS
Codec ID/Info                            : Picture based subtitle format used on BDs/HD-DVDs
Duration                                 : 1 h 54 min
Bit rate                                 : 8 306 b/s
Count of elements                        : 2352
Stream size                              : 6.79 MiB (0%)
Title                                    : Portuguese-PGS
Language                                 : Portuguese
Default                                  : No
Forced                                   : No

Text #5
ID                                       : 8
Format                                   : PGS
Muxing mode                              : zlib
Codec ID                                 : S_HDMV/PGS
Codec ID/Info                            : Picture based subtitle format used on BDs/HD-DVDs
Duration                                 : 1 h 54 min
Bit rate                                 : 8 984 b/s
Count of elements                        : 2342
Stream size                              : 7.34 MiB (0%)
Title                                    : Spanish-PGS
Language                                 : Spanish
Default                                  : No
Forced                                   : No

Menu
00:00:00.000                             : en:00:00:00.000
00:08:26.548                             : en:00:08:26.548
00:16:11.637                             : en:00:16:11.637
00:32:38.290                             : en:00:32:38.290
00:42:16.367                             : en:00:42:16.367
00:52:22.264                             : en:00:52:22.264
00:59:50.629                             : en:00:59:50.629
01:12:05.530                             : en:01:12:05.530
01:22:34.449                             : en:01:22:34.449
01:33:00.950                             : en:01:33:00.950
01:40:33.319                             : en:01:40:33.319
01:47:38.994                             : en:01:47:38.994
01:52:32.663                             : en:01:52:32.663
01:55:41.351                             : en:01:55:41.351

Скриншоты:



Время раздачи: с 13:00 до 23:00
[NNMClub.to]_Star.Trek.Beyond.2016.REMUX.1080p.BluRay.AVC.TrueHD7.1.Atmos-iFT.mkv.torrent
 Торрент: Золотая раздача  Зарегистрирован
 
Примагнититься
Free Leech
Зарегистрируйтесь и скачайте торрент!
137 KB
 Зарегистрирован:   21 Окт 2016 16:32:07
 Размер:   27,3 GB  (
 Рейтинг:    (Голосов: 8)
 Поблагодарили:   45
 Проверка:   Оформление проверено модератором 21 Окт 2016 16:33:02
Как cкачать  ·  Как раздать  ·  Правильно оформить  ·  Поднять ратио!  
Nitro​gradi​ent​
Стаж: 6 лет 6 мес.
Сообщений: 34
Ratio: 1,597
0.43%
ukraine.gif
неужели трудно оставить русскую дорожку? не заметил качал 30 гиг а там нет русского... надеюсь этот комент поможет не ошибиться другим.
Barkclay
Стаж: 5 лет 1 мес.
Сообщений: 200
Ratio: 40,112
100%
russia.gif
Nitrogradient писал(а): Перейти к сообщению
неужели трудно оставить русскую дорожку? не заметил качал 30 гиг а там нет русского... надеюсь этот комент поможет не ошибиться другим.
:лол:
Не поможет. Если не смотрят дальше постера и кнопки скачать.
Всем остальным, достаточно того, что: Форум - Фильмы в оригинале (HD), и описания раздачи.
Показать сообщения:   
Начать новую тему   Ответить на тему    Торрент-трекер NNM-Club -> Зарубежное кино -> Фильмы в оригинале (HD) Часовой пояс: GMT + 3
Страница 1 из 1