Интеллигентный торрент-трекер
canvas not supported
Нас вместе: 4 112 014

Solar Fields - Discography 25 Releases (2001-2016) Ultimae Records, E.A.R.S [FLAC|Lossless|tracks+.cue, tracks] <Psybient, Downtempo, Ambient>


 
 
RSS
Начать новую тему   Ответить на тему    Торрент-трекер NNM-Club -> Electronic -> Easy listening (Lossless)
Автор Сообщение
vilator ®
Модератор Музыки
RG Музыки
 
Стаж: 7 лет 7 мес.
Сообщений: 5414
Ratio: 117,738
Поблагодарили: 104160
100%
Откуда: Minsk
pirates.png
Solar Fields Discography

Год: 2001-2016 | Жанр: Psybient, Downtempo, Ambient, Progressive Trance | Издание: Ultimae Records, E.A.R.S | Продолжительность: 39:05:54
Кодек: FLAC (*.flac) | Битрейт: Lossless | Тип рипа: tracks+.cue, tracks | Источник: What, bandcamp, new-team
Треклист:
Год выпуска: 2001
Продолжительность: 01:12:46
Треклист:

01. 6.7 (04:23)
02. Floating Channels (07:46)
03. Self Transforming Experience (First Movement) (03:47)
04. Blue Light... (04:07)
05. ...Red Vortex (04:46)
06. Echoing Spectrum (04:29)
07. Inherit Velocity (02:40)
08. Zero Rotation (07:07)
09. Overlapping Particles (05:27)
10. Self Transforming Experience (Second Movement) (07:05)
11. Zone 12 (04:31)
12. Nea 3 (02:47)
13. Outlined Surfaces (07:48)
14. Breathing Neutron Empire (06:03)

Exact Audio Copy V1.0 beta 3 from 29. August 2011

EAC extraction logfile from 28. August 2013, 12:05

Solar Fields / Reflective Frequencies

Used drive : ATAPI DVD A DH20A3H Adapter: 1 ID: 0

Read mode : Secure
Utilize accurate stream : Yes
Defeat audio cache : Yes
Make use of C2 pointers : No

Read offset correction : 6
Overread into Lead-In and Lead-Out : No
Fill up missing offset samples with silence : Yes
Delete leading and trailing silent blocks : No
Null samples used in CRC calculations : Yes
Used interface : Native Win32 interface for Win NT & 2000
Gap handling : Appended to previous track

Used output format : User Defined Encoder
Selected bitrate : 1024 kBit/s
Quality : High
Add ID3 tag : No
Command line compressor : C:\Program Files (x86)\Exact Audio Copy\Flac\flac.exe
Additional command line options : -V -8 -T "Genre=%genre%" -T "Artist=%artist%" -T "Title=%title%" -T "Album=%albumtitle%" -T "Date=%year%" -T "Tracknumber=%tracknr%" -T "Albumartist=%albuminterpret%" -T "Composer=%composer%" -T "Comment=%comment%" %source%

TOC of the extracted CD

Track | Start | Length | Start sector | End sector
---------------------------------------------------------
1 | 0:00.00 | 4:22.42 | 0 | 19691
2 | 4:22.42 | 7:46.19 | 19692 | 54660
3 | 12:08.61 | 3:47.27 | 54661 | 71712
4 | 15:56.13 | 4:07.16 | 71713 | 90253
5 | 20:03.29 | 4:45.50 | 90254 | 111678
6 | 24:49.04 | 4:29.32 | 111679 | 131885
7 | 29:18.36 | 2:39.71 | 131886 | 143881
8 | 31:58.32 | 7:06.51 | 143882 | 175882
9 | 39:05.08 | 5:27.34 | 175883 | 200441
10 | 44:32.42 | 7:05.30 | 200442 | 232346
11 | 51:37.72 | 4:30.45 | 232347 | 252641
12 | 56:08.42 | 2:47.24 | 252642 | 265190
13 | 58:55.66 | 7:48.17 | 265191 | 300307
14 | 66:44.08 | 6:02.50 | 300308 | 327507

Track 1

Filename X:\Solar Fields - Reflective Frequencies (2008) [inre 004, Repress]\01 - 6.7.wav

Pre-gap length 0:00:02.00

Peak level 92.2 %
Extraction speed 4.9 X
Track quality 100.0 %
Test CRC CC48C83C
Copy CRC CC48C83C
Accurately ripped (confidence 7) [73C7E46C] (AR v2)
Copy OK

Track 2

Filename X:\Solar Fields - Reflective Frequencies (2008) [inre 004, Repress]\02 - Floating Channels.wav

Peak level 92.2 %
Extraction speed 5.9 X
Track quality 100.0 %
Test CRC A34B4013
Copy CRC A34B4013
Accurately ripped (confidence 7) [AB4EB69A] (AR v2)
Copy OK

Track 3

Filename X:\Solar Fields - Reflective Frequencies (2008) [inre 004, Repress]\03 - Self Transforming Experience (First Movement).wav

Peak level 91.4 %
Extraction speed 6.0 X
Track quality 100.0 %
Test CRC 0B7AF626
Copy CRC 0B7AF626
Accurately ripped (confidence 7) [D52DDC5C] (AR v2)
Copy OK

Track 4

Filename X:\Solar Fields - Reflective Frequencies (2008) [inre 004, Repress]\04 - Blue Light....wav

Peak level 92.2 %
Extraction speed 6.4 X
Track quality 100.0 %
Test CRC E8A422B9
Copy CRC E8A422B9
Accurately ripped (confidence 7) [53969202] (AR v2)
Copy OK

Track 5

Filename X:\Solar Fields - Reflective Frequencies (2008) [inre 004, Repress]\05 - ...Red Vortex.wav

Peak level 92.2 %
Extraction speed 6.9 X
Track quality 100.0 %
Test CRC 13B90061
Copy CRC 13B90061
Accurately ripped (confidence 7) [059FEF28] (AR v2)
Copy OK

Track 6

Filename X:\Solar Fields - Reflective Frequencies (2008) [inre 004, Repress]\06 - Echoing Spectrum.wav

Peak level 92.2 %
Extraction speed 7.2 X
Track quality 100.0 %
Test CRC C242E718
Copy CRC C242E718
Accurately ripped (confidence 7) [441B7285] (AR v2)
Copy OK

Track 7

Filename X:\Solar Fields - Reflective Frequencies (2008) [inre 004, Repress]\07 - Inherit Velocity.wav

Peak level 92.2 %
Extraction speed 6.8 X
Track quality 100.0 %
Test CRC 1D256619
Copy CRC 1D256619
Accurately ripped (confidence 7) [A574BA2E] (AR v2)
Copy OK

Track 8

Filename X:\Solar Fields - Reflective Frequencies (2008) [inre 004, Repress]\08 - Zero Rotation.wav

Peak level 92.2 %
Extraction speed 8.2 X
Track quality 100.0 %
Test CRC 61F996DE
Copy CRC 61F996DE
Accurately ripped (confidence 7) [F2B0B2B1] (AR v2)
Copy OK

Track 9

Filename X:\Solar Fields - Reflective Frequencies (2008) [inre 004, Repress]\09 - Overlapping Particles.wav

Peak level 92.2 %
Extraction speed 8.4 X
Track quality 100.0 %
Test CRC 706BB743
Copy CRC 706BB743
Accurately ripped (confidence 7) [F2026856] (AR v2)
Copy OK

Track 10

Filename X:\Solar Fields - Reflective Frequencies (2008) [inre 004, Repress]\10 - Self Transforming Experience (Second Movement).wav

Peak level 92.2 %
Extraction speed 9.0 X
Track quality 100.0 %
Test CRC 34D37E87
Copy CRC 34D37E87
Accurately ripped (confidence 7) [EDBF2956] (AR v2)
Copy OK

Track 11

Filename X:\Solar Fields - Reflective Frequencies (2008) [inre 004, Repress]\11 - Zone 12.wav

Peak level 92.2 %
Extraction speed 7.3 X
Track quality 99.9 %
Test CRC F09D8315
Copy CRC F09D8315
Accurately ripped (confidence 7) [C055EF7A] (AR v2)
Copy OK

Track 12

Filename X:\Solar Fields - Reflective Frequencies (2008) [inre 004, Repress]\12 - Nea 3.wav

Peak level 92.2 %
Extraction speed 6.3 X
Track quality 99.9 %
Test CRC 2DFBD508
Copy CRC 2DFBD508
Accurately ripped (confidence 7) [296E3615] (AR v2)
Copy OK

Track 13

Filename X:\Solar Fields - Reflective Frequencies (2008) [inre 004, Repress]\13 - Outlined Surfaces.wav

Peak level 92.2 %
Extraction speed 10.0 X
Track quality 100.0 %
Test CRC A65356A2
Copy CRC A65356A2
Accurately ripped (confidence 7) [3599C988] (AR v2)
Copy OK

Track 14

Filename X:\Solar Fields - Reflective Frequencies (2008) [inre 004, Repress]\14 - Breathing Neuron Empire (+Untitled Hidden Track).wav

Peak level 92.2 %
Extraction speed 10.1 X
Track quality 100.0 %
Test CRC 445EEE60
Copy CRC 445EEE60
Accurately ripped (confidence 7) [F277F741] (AR v2)
Copy OK

All tracks accurately ripped

No errors occurred

End of status report

==== Log checksum D54DF40945C76006A0CEA7B64DE986E52325AD712581AE4AA03585FB7F1B1028 ====


REM GENRE Ambient
REM DATE 2008
REM DISCID C0110E0E
REM COMMENT "ExactAudioCopy v1.0b3"
PERFORMER "Solar Fields"
TITLE "Reflective Frequencies"
FILE "01 - 6.7.wav" WAVE
TRACK 01 AUDIO
TITLE "6.7"
PERFORMER "Solar Fields"
INDEX 01 00:00:00
FILE "02 - Floating Channels.wav" WAVE
TRACK 02 AUDIO
TITLE "Floating Channels"
PERFORMER "Solar Fields"
INDEX 01 00:00:00
FILE "03 - Self Transforming Experience (First Movement).wav" WAVE
TRACK 03 AUDIO
TITLE "Self Transforming Experience (First Movement)"
PERFORMER "Solar Fields"
INDEX 01 00:00:00
FILE "04 - Blue Light....wav" WAVE
TRACK 04 AUDIO
TITLE "Blue Light..."
PERFORMER "Solar Fields"
INDEX 01 00:00:00
FILE "05 - ...Red Vortex.wav" WAVE
TRACK 05 AUDIO
TITLE "...Red Vortex"
PERFORMER "Solar Fields"
INDEX 01 00:00:00
FILE "06 - Echoing Spectrum.wav" WAVE
TRACK 06 AUDIO
TITLE "Echoing Spectrum"
PERFORMER "Solar Fields"
INDEX 01 00:00:00
FILE "07 - Inherit Velocity.wav" WAVE
TRACK 07 AUDIO
TITLE "Inherit Velocity"
PERFORMER "Solar Fields"
INDEX 01 00:00:00
FILE "08 - Zero Rotation.wav" WAVE
TRACK 08 AUDIO
TITLE "Zero Rotation"
PERFORMER "Solar Fields"
INDEX 01 00:00:00
FILE "09 - Overlapping Particles.wav" WAVE
TRACK 09 AUDIO
TITLE "Overlapping Particles"
PERFORMER "Solar Fields"
INDEX 01 00:00:00
FILE "10 - Self Transforming Experience (Second Movement).wav" WAVE
TRACK 10 AUDIO
TITLE "Self Transforming Experience (Second Movement)"
PERFORMER "Solar Fields"
INDEX 01 00:00:00
FILE "11 - Zone 12.wav" WAVE
TRACK 11 AUDIO
TITLE "Zone 12"
PERFORMER "Solar Fields"
INDEX 01 00:00:00
FILE "12 - Nea 3.wav" WAVE
TRACK 12 AUDIO
TITLE "Nea 3"
PERFORMER "Solar Fields"
INDEX 01 00:00:00
FILE "13 - Outlined Surfaces.wav" WAVE
TRACK 13 AUDIO
TITLE "Outlined Surfaces"
PERFORMER "Solar Fields"
INDEX 01 00:00:00
FILE "14 - Breathing Neuron Empire (+Untitled Hidden Track).wav" WAVE
TRACK 14 AUDIO
TITLE "Breathing Neuron Empire (+Untitled Hidden Track)"
PERFORMER "Solar Fields"
INDEX 01 00:00:00

Год выпуска: 2003
Продолжительность: 01:19:17
Треклист:

01. Confusion Illusion (07:00)
02. Elevator Sunshine Girl (06:02)
03. Cosmic Dessert (05:58)
04. Magic Eye (08:00)
05. Infection 268-7 (08:32)
06. Magnetic Air (06:20)
07. Majestic Feeling (09:33)
08. Blue Moon Station (Album Version) (07:32)
09. Planet Zoo (07:00)
10. Third Time (A-Version) (06:24)
11. Swimming With Stones (06:56)

Exact Audio Copy V1.0 beta 3 from 29. August 2011

EAC extraction logfile from 29. August 2013, 1:05

Solar Fields / Blue Moon Station

Used drive : ATAPI DVD A DH20A3H Adapter: 1 ID: 0

Read mode : Secure
Utilize accurate stream : Yes
Defeat audio cache : Yes
Make use of C2 pointers : No

Read offset correction : 6
Overread into Lead-In and Lead-Out : No
Fill up missing offset samples with silence : Yes
Delete leading and trailing silent blocks : No
Null samples used in CRC calculations : Yes
Used interface : Native Win32 interface for Win NT & 2000
Gap handling : Appended to previous track

Used output format : User Defined Encoder
Selected bitrate : 1024 kBit/s
Quality : High
Add ID3 tag : No
Command line compressor : C:\Program Files (x86)\Exact Audio Copy\Flac\flac.exe
Additional command line options : -V -8 -T "Genre=%genre%" -T "Artist=%artist%" -T "Title=%title%" -T "Album=%albumtitle%" -T "Date=%year%" -T "Tracknumber=%tracknr%" -T "Albumartist=%albuminterpret%" -T "Composer=%composer%" -T "Comment=%comment%" %source%

TOC of the extracted CD

Track | Start | Length | Start sector | End sector
---------------------------------------------------------
1 | 0:00.00 | 7:00.01 | 0 | 31500
2 | 7:00.01 | 6:01.40 | 31501 | 58615
3 | 13:01.41 | 5:57.62 | 58616 | 85452
4 | 18:59.28 | 8:00.04 | 85453 | 121456
5 | 26:59.32 | 8:32.02 | 121457 | 159858
6 | 35:31.34 | 6:19.73 | 159859 | 188356
7 | 41:51.32 | 9:33.10 | 188357 | 231341
8 | 51:24.42 | 7:31.63 | 231342 | 265229
9 | 58:56.30 | 6:59.70 | 265230 | 296724
10 | 65:56.25 | 6:24.16 | 296725 | 325540
11 | 72:20.41 | 6:56.31 | 325541 | 356771

Track 1

Filename K:\Music (Lossless)\Solar Fields\2008 - Blue Moon Station [inre 008, Repress]\01 - Confusion Illusion.wav

Pre-gap length 0:00:02.00

Peak level 91.9 %
Extraction speed 5.3 X
Track quality 100.0 %
Test CRC F4735EFD
Copy CRC F4735EFD
Accurately ripped (confidence 9) [5CF0DA3D] (AR v2)
Copy OK

Track 2

Filename K:\Music (Lossless)\Solar Fields\2008 - Blue Moon Station [inre 008, Repress]\02 - Elevator Sunshine Girl.wav

Peak level 91.9 %
Extraction speed 5.1 X
Track quality 99.9 %
Test CRC E3D29A28
Copy CRC E3D29A28
Accurately ripped (confidence 9) [073C1782] (AR v2)
Copy OK

Track 3

Filename K:\Music (Lossless)\Solar Fields\2008 - Blue Moon Station [inre 008, Repress]\03 - Cosmic Dessert.wav

Peak level 91.9 %
Extraction speed 6.5 X
Track quality 100.0 %
Test CRC 73A65E15
Copy CRC 73A65E15
Accurately ripped (confidence 9) [8B9AD5A4] (AR v2)
Copy OK

Track 4

Filename K:\Music (Lossless)\Solar Fields\2008 - Blue Moon Station [inre 008, Repress]\04 - Magic Eye.wav

Peak level 91.9 %
Extraction speed 6.5 X
Track quality 99.9 %
Test CRC 005B866E
Copy CRC 005B866E
Accurately ripped (confidence 9) [850DDD46] (AR v2)
Copy OK

Track 5

Filename K:\Music (Lossless)\Solar Fields\2008 - Blue Moon Station [inre 008, Repress]\05 - Infection 268-7.wav

Peak level 91.9 %
Extraction speed 8.0 X
Track quality 100.0 %
Test CRC B20C917B
Copy CRC B20C917B
Accurately ripped (confidence 9) [9E8A98A4] (AR v2)
Copy OK

Track 6

Filename K:\Music (Lossless)\Solar Fields\2008 - Blue Moon Station [inre 008, Repress]\06 - Magnetic Air.wav

Peak level 91.9 %
Extraction speed 8.3 X
Track quality 100.0 %
Test CRC 20562A0C
Copy CRC 20562A0C
Accurately ripped (confidence 9) [6ACFE8B7] (AR v2)
Copy OK

Track 7

Filename K:\Music (Lossless)\Solar Fields\2008 - Blue Moon Station [inre 008, Repress]\07 - Majestic Feeling.wav

Peak level 91.9 %
Extraction speed 9.1 X
Track quality 100.0 %
Test CRC 2E1B0FA9
Copy CRC 2E1B0FA9
Accurately ripped (confidence 9) [618077F3] (AR v2)
Copy OK

Track 8

Filename K:\Music (Lossless)\Solar Fields\2008 - Blue Moon Station [inre 008, Repress]\08 - Blue Moon Station (Album Version).wav

Peak level 91.9 %
Extraction speed 8.4 X
Track quality 99.9 %
Test CRC 83C5346A
Copy CRC 83C5346A
Accurately ripped (confidence 9) [72038670] (AR v2)
Copy OK

Track 9

Filename K:\Music (Lossless)\Solar Fields\2008 - Blue Moon Station [inre 008, Repress]\09 - Planet Zoo.wav

Peak level 91.9 %
Extraction speed 8.5 X
Track quality 99.9 %
Test CRC C4005402
Copy CRC C4005402
Accurately ripped (confidence 9) [AF93DC89] (AR v2)
Copy OK

Track 10

Filename K:\Music (Lossless)\Solar Fields\2008 - Blue Moon Station [inre 008, Repress]\10 - Third Time (A-Version).wav

Peak level 91.9 %
Extraction speed 10.2 X
Track quality 100.0 %
Test CRC 30F160A5
Copy CRC 30F160A5
Accurately ripped (confidence 9) [AE942BAD] (AR v2)
Copy OK

Track 11

Filename K:\Music (Lossless)\Solar Fields\2008 - Blue Moon Station [inre 008, Repress]\11 - Swimming With Stones.wav

Peak level 91.9 %
Extraction speed 10.5 X
Track quality 100.0 %
Test CRC 032EB382
Copy CRC 032EB382
Accurately ripped (confidence 9) [DBEF7FE3] (AR v2)
Copy OK

All tracks accurately ripped

No errors occurred

End of status report

==== Log checksum 09C74A9E05584677A86F7D2520CEE8CC18BFA22B6EC5A130182E965A3DF60312 ====


REM GENRE Ambient
REM DATE 2008
REM DISCID 8B12940B
REM COMMENT "ExactAudioCopy v1.0b3"
PERFORMER "Solar Fields"
TITLE "Blue Moon Station"
FILE "01 - Confusion Illusion.wav" WAVE
TRACK 01 AUDIO
TITLE "Confusion Illusion"
PERFORMER "Solar Fields"
INDEX 01 00:00:00
FILE "02 - Elevator Sunshine Girl.wav" WAVE
TRACK 02 AUDIO
TITLE "Elevator Sunshine Girl"
PERFORMER "Solar Fields"
INDEX 01 00:00:00
FILE "03 - Cosmic Dessert.wav" WAVE
TRACK 03 AUDIO
TITLE "Cosmic Dessert"
PERFORMER "Solar Fields"
INDEX 01 00:00:00
FILE "04 - Magic Eye.wav" WAVE
TRACK 04 AUDIO
TITLE "Magic Eye"
PERFORMER "Solar Fields"
INDEX 01 00:00:00
FILE "05 - Infection 268-7.wav" WAVE
TRACK 05 AUDIO
TITLE "Infection 268-7"
PERFORMER "Solar Fields"
INDEX 01 00:00:00
FILE "06 - Magnetic Air.wav" WAVE
TRACK 06 AUDIO
TITLE "Magnetic Air"
PERFORMER "Solar Fields"
INDEX 01 00:00:00
FILE "07 - Majestic Feeling.wav" WAVE
TRACK 07 AUDIO
TITLE "Majestic Feeling"
PERFORMER "Solar Fields"
INDEX 01 00:00:00
FILE "08 - Blue Moon Station (Album Version).wav" WAVE
TRACK 08 AUDIO
TITLE "Blue Moon Station (Album Version)"
PERFORMER "Solar Fields"
INDEX 01 00:00:00
FILE "09 - Planet Zoo.wav" WAVE
TRACK 09 AUDIO
TITLE "Planet Zoo"
PERFORMER "Solar Fields"
INDEX 01 00:00:00
FILE "10 - Third Time (A-Version).wav" WAVE
TRACK 10 AUDIO
TITLE "Third Time (A-Version)"
PERFORMER "Solar Fields"
INDEX 01 00:00:00
FILE "11 - Swimming With Stones.wav" WAVE
TRACK 11 AUDIO
TITLE "Swimming With Stones"
PERFORMER "Solar Fields"
INDEX 01 00:00:00

Год выпуска: 2003
Продолжительность: 02:46:25
Треклист:

01. Confusion Illusion (07:00)
02. Elevator Sunshine Girl (07:17)
03. Cosmic Dessert (07:16)
04. Magic Eye (08:24)
05. Infection 268-7 (08:59)
06. Magnetic Air (07:08)
07. Majestic Feeling (10:48)
08. Blue Moon Station (Album Version) (08:00)
09. Planet Zoo (07:28)
10. Third Time (A-Version) (07:48)
11. Swimming With Stones (07:00)
12. Blue Moon Station (Full album continuous mix) (01:19:17)
Год выпуска: 2005
Продолжительность: 01:19:57
Треклист:

01. Air Song (8 AM Version) (16:39)
02. No Answer (09:35)
03. Station 5 (10:32)
04. Winter Sun (08:34)
05. Combinations (16:01)
06. A Place To Think (05:59)
07. Detection (Far And Extended) (12:37)

Exact Audio Copy V0.99 prebeta 3 from 28. July 2007

EAC extraction logfile from 7. November 2008, 19:16

Solar Fields / Extended

Used drive : _NEC DVD_RW ND-3540A Adapter: 0 ID: 2

Read mode : Secure
Utilize accurate stream : Yes
Defeat audio cache : Yes
Make use of C2 pointers : No

Read offset correction : 48
Overread into Lead-In and Lead-Out : No
Fill up missing offset samples with silence : Yes
Delete leading and trailing silent blocks : No
Null samples used in CRC calculations : Yes
Used interface : Installed external ASPI interface
Gap handling : Appended to previous track

Used output format : User Defined Encoder
Selected bitrate : 768 kBit/s
Quality : High
Add ID3 tag : No
Command line compressor : C:\Program Files\Exact Audio Copy\FLAC\FLAC.EXE
Additional command line options : -6 -V -T "ARTIST=%a" -T "TITLE=%t" -T "ALBUM=%g" -T "DATE=%y" -T "TRACKNUMBER=%n" -T "GENRE=%m" -T "COMMENT=%e" %s -o %d

TOC of the extracted CD

Track | Start | Length | Start sector | End sector
---------------------------------------------------------
1 | 0:00.00 | 16:39.01 | 0 | 74925
2 | 16:39.01 | 9:34.70 | 74926 | 118045
3 | 26:13.71 | 10:31.66 | 118046 | 165436
4 | 36:45.62 | 8:33.53 | 165437 | 203964
5 | 45:19.40 | 16:01.02 | 203965 | 276041
6 | 61:20.42 | 5:59.15 | 276042 | 302981
7 | 67:19.57 | 12:37.30 | 302982 | 359786

Track 1

Filename C:\Solar Fields - Extended [Limited Edition]\01 - Air Song (8 AM Version).wav

Pre-gap length 0:00:02.00

Peak level 91.8 %
Track quality 100.0 %
Test CRC E4DD5089
Copy CRC E4DD5089
Accurately ripped (confidence 5) [3EA6EFBD]
Copy OK

Track 2

Filename C:\Solar Fields - Extended [Limited Edition]\02 - No Answer.wav

Peak level 91.2 %
Track quality 100.0 %
Test CRC 9289DA39
Copy CRC 9289DA39
Accurately ripped (confidence 5) [CA510D62]
Copy OK

Track 3

Filename C:\Solar Fields - Extended [Limited Edition]\03 - Station 5.wav

Peak level 91.7 %
Track quality 100.0 %
Test CRC 38E9E931
Copy CRC 38E9E931
Accurately ripped (confidence 5) [8CA19163]
Copy OK

Track 4

Filename C:\Solar Fields - Extended [Limited Edition]\04 - Winter Sun.wav

Peak level 90.7 %
Track quality 99.9 %
Test CRC 61CF3F76
Copy CRC 61CF3F76
Accurately ripped (confidence 5) [E63CB61C]
Copy OK

Track 5

Filename C:\Solar Fields - Extended [Limited Edition]\05 - Combinations.wav

Peak level 91.7 %
Track quality 100.0 %
Test CRC FC8249AE
Copy CRC FC8249AE
Accurately ripped (confidence 4) [99BF74FF]
Copy OK

Track 6

Filename C:\Solar Fields - Extended [Limited Edition]\06 - A Place To Think.wav

Peak level 80.1 %
Track quality 100.0 %
Test CRC DF322832
Copy CRC DF322832
Accurately ripped (confidence 5) [8F1DE69C]
Copy OK

Track 7

Filename C:\Solar Fields - Extended [Limited Edition]\07 - Detection (Far And Extended).wav

Peak level 91.8 %
Track quality 100.0 %
Test CRC 7C2B8C35
Copy CRC 7C2B8C35
Accurately ripped (confidence 4) [59803995]
Copy OK

All tracks accurately ripped

No errors occurred

End of status report


REM GENRE Ambient
REM DATE 2005
REM DISCID 4912BD07
REM COMMENT "ExactAudioCopy v0.99pb3"
PERFORMER "Solar Fields"
TITLE "Extended"
FILE "01 - Air Song (8 AM Version).wav" WAVE
TRACK 01 AUDIO
TITLE "Air Song (8 AM Version)"
PERFORMER "Solar Fields"
INDEX 01 00:00:00
FILE "02 - No Answer.wav" WAVE
TRACK 02 AUDIO
TITLE "No Answer"
PERFORMER "Solar Fields"
INDEX 01 00:00:00
FILE "03 - Station 5.wav" WAVE
TRACK 03 AUDIO
TITLE "Station 5"
PERFORMER "Solar Fields"
INDEX 01 00:00:00
FILE "04 - Winter Sun.wav" WAVE
TRACK 04 AUDIO
TITLE "Winter Sun"
PERFORMER "Solar Fields"
INDEX 01 00:00:00
FILE "05 - Combinations.wav" WAVE
TRACK 05 AUDIO
TITLE "Combinations"
PERFORMER "Solar Fields"
INDEX 01 00:00:00
FILE "06 - A Place To Think.wav" WAVE
TRACK 06 AUDIO
TITLE "A Place To Think"
PERFORMER "Solar Fields"
INDEX 01 00:00:00
FILE "07 - Detection (Far And Extended).wav" WAVE
TRACK 07 AUDIO
TITLE "Detection (Far And Extended)"
PERFORMER "Solar Fields"
INDEX 01 00:00:00

Год выпуска: 2005
Продолжительность: 02:39:54
Треклист:

01. Air Song (8 AM Version) (16:39)
02. No Answer (09:35)
03. Station 5 (10:32)
04. Winter Sun (08:34)
05. Combinations (feat. Vincent Villuis) (16:01)
06. A Place To Think (05:59)
07. Detection (Far And Extended) (12:37)
08. Extended (Full album continuous mix) (01:19:57)
Год выпуска: 2005
Продолжительность: 01:19:57
Треклист:

01. Home (04:41)
02. Time Slide (05:01)
03. Insum (08:24)
04. Star Fruit (01:06)
05. Magnetosphere (Star Fruit Part 2) (02:45)
06. Stereo Hypnosis (Magnetosphere Part 2) (04:08)
07. Air Song (12:21)
08. Cocoon Moon (Glastonbury Festival 2005 Mix) (10:37)
09. Monogram (15:45)
10. Times Are Good (07:42)
11. Leaving Home (07:27)

Exact Audio Copy V0.99 prebeta 5 from 4. May 2009

EAC extraction logfile from 22. December 2010, 11:33

Solar Fields / Leaving Home

Used drive : _NEC DVD_RW ND-3550A Adapter: 1 ID: 1

Read mode : Secure
Utilize accurate stream : Yes
Defeat audio cache : Yes
Make use of C2 pointers : No

Read offset correction : 48
Overread into Lead-In and Lead-Out : No
Fill up missing offset samples with silence : Yes
Delete leading and trailing silent blocks : No
Null samples used in CRC calculations : Yes
Used interface : Native Win32 interface for Win NT & 2000
Gap handling : Appended to previous track

Used output format : User Defined Encoder
Selected bitrate : 320 kBit/s
Quality : High
Add ID3 tag : No
Command line compressor : C:\Program Files\Exact Audio Copy\Flac\flac.exe
Additional command line options : -8 -V -T "ARTIST=%a" -T "TITLE=%t" -T "ALBUM=%g" -T "DATE=%y" -T "TRACKNUMBER=%n" -T "GENRE=%m" -T "COMMENT=EAC FLAC -8" %s

TOC of the extracted CD

Track | Start | Length | Start sector | End sector
---------------------------------------------------------
1 | 0:00.00 | 4:41.18 | 0 | 21092
2 | 4:41.18 | 5:01.30 | 21093 | 43697
3 | 9:42.48 | 8:23.43 | 43698 | 81465
4 | 18:06.16 | 1:05.51 | 81466 | 86391
5 | 19:11.67 | 2:44.65 | 86392 | 98756
6 | 21:56.57 | 4:08.00 | 98757 | 117356
7 | 26:04.57 | 12:21.29 | 117357 | 172960
8 | 38:26.11 | 10:36.72 | 172961 | 220732
9 | 49:03.08 | 15:44.68 | 220733 | 291600
10 | 64:48.01 | 7:41.44 | 291601 | 326219
11 | 72:29.45 | 7:27.01 | 326220 | 359745

Track 1

Filename F:\Solar Fields - Leaving Home\01 - Home.wav

Pre-gap length 0:00:02.00

Peak level 89.2 %
Track quality 99.9 %
Test CRC FEA3529A
Copy CRC FEA3529A
Accurately ripped (confidence 9) [6C112919]
Copy OK

Track 2

Filename F:\Solar Fields - Leaving Home\02 - Time Slide.wav

Peak level 91.8 %
Track quality 100.0 %
Test CRC 79767830
Copy CRC 79767830
Accurately ripped (confidence 10) [184EED8B]
Copy OK

Track 3

Filename F:\Solar Fields - Leaving Home\03 - Insum.wav

Peak level 91.8 %
Track quality 100.0 %
Test CRC 9A8518C7
Copy CRC 9A8518C7
Accurately ripped (confidence 10) [A3D5FED6]
Copy OK

Track 4

Filename F:\Solar Fields - Leaving Home\04 - Star Fruit.wav

Peak level 91.9 %
Track quality 100.0 %
Test CRC 6C68C2ED
Copy CRC 6C68C2ED
Accurately ripped (confidence 9) [8E6F3D1D]
Copy OK

Track 5

Filename F:\Solar Fields - Leaving Home\05 - Magnetosphere (Star Fruit Part 2).wav

Peak level 91.8 %
Track quality 100.0 %
Test CRC B44D37CA
Copy CRC B44D37CA
Accurately ripped (confidence 10) [CEE78374]
Copy OK

Track 6

Filename F:\Solar Fields - Leaving Home\06 - Stereo Hypnosis (Magnetosphere Part 2).wav

Peak level 91.8 %
Track quality 100.0 %
Test CRC AF29E130
Copy CRC AF29E130
Accurately ripped (confidence 9) [5996F1E3]
Copy OK

Track 7

Filename F:\Solar Fields - Leaving Home\07 - Air Song.wav

Peak level 91.8 %
Track quality 100.0 %
Test CRC B3D48A48
Copy CRC B3D48A48
Accurately ripped (confidence 9) [BF20DD1F]
Copy OK

Track 8

Filename F:\Solar Fields - Leaving Home\08 - Cocoon Moon (Glastonbury Festival 2005 Mix).wav

Peak level 93.8 %
Track quality 100.0 %
Test CRC E73B7A61
Copy CRC E73B7A61
Accurately ripped (confidence 9) [9F0FA8A5]
Copy OK

Track 9

Filename F:\Solar Fields - Leaving Home\09 - Monogram.wav

Peak level 91.8 %
Track quality 100.0 %
Test CRC FAAD9926
Copy CRC FAAD9926
Accurately ripped (confidence 9) [EB011FAE]
Copy OK

Track 10

Filename F:\Solar Fields - Leaving Home\10 - Times Are Good.wav

Peak level 91.8 %
Track quality 100.0 %
Test CRC 90C60C7C
Copy CRC 90C60C7C
Accurately ripped (confidence 9) [6E9F5CAF]
Copy OK

Track 11

Filename F:\Solar Fields - Leaving Home\11 - Leaving Home.wav

Peak level 91.8 %
Track quality 100.0 %
Test CRC 0A2F33C5
Copy CRC 0A2F33C5
Accurately ripped (confidence 10) [49213702]
Copy OK

All tracks accurately ripped

No errors occurred

End of status report


REM GENRE Ambient
REM DATE 2005
REM DISCID 9C12BC0B
REM COMMENT "ExactAudioCopy v0.99pb5"
PERFORMER "Solar Fields"
TITLE "Leaving Home"
FILE "01 - Home.wav" WAVE
TRACK 01 AUDIO
TITLE "Home"
PERFORMER "Solar Fields"
INDEX 01 00:00:00
FILE "02 - Time Slide.wav" WAVE
TRACK 02 AUDIO
TITLE "Time Slide"
PERFORMER "Solar Fields"
INDEX 01 00:00:00
FILE "03 - Insum.wav" WAVE
TRACK 03 AUDIO
TITLE "Insum"
PERFORMER "Solar Fields"
INDEX 01 00:00:00
FILE "04 - Star Fruit.wav" WAVE
TRACK 04 AUDIO
TITLE "Star Fruit"
PERFORMER "Solar Fields"
INDEX 01 00:00:00
FILE "05 - Magnetosphere (Star Fruit Part 2).wav" WAVE
TRACK 05 AUDIO
TITLE "Magnetosphere (Star Fruit Part 2)"
PERFORMER "Solar Fields"
INDEX 01 00:00:00
FILE "06 - Stereo Hypnosis (Magnetosphere Part 2).wav" WAVE
TRACK 06 AUDIO
TITLE "Stereo Hypnosis (Magnetosphere Part 2)"
PERFORMER "Solar Fields"
INDEX 01 00:00:00
FILE "07 - Air Song.wav" WAVE
TRACK 07 AUDIO
TITLE "Air Song"
PERFORMER "Solar Fields"
INDEX 01 00:00:00
FILE "08 - Cocoon Moon (Glastonbury Festival 2005 Mix).wav" WAVE
TRACK 08 AUDIO
TITLE "Cocoon Moon (Glastonbury Festival 2005 Mix)"
PERFORMER "Solar Fields"
INDEX 01 00:00:00
FILE "09 - Monogram.wav" WAVE
TRACK 09 AUDIO
TITLE "Monogram"
PERFORMER "Solar Fields"
INDEX 01 00:00:00
FILE "10 - Times Are Good.wav" WAVE
TRACK 10 AUDIO
TITLE "Times Are Good"
PERFORMER "Solar Fields"
INDEX 01 00:00:00
FILE "11 - Leaving Home.wav" WAVE
TRACK 11 AUDIO
TITLE "Leaving Home"
PERFORMER "Solar Fields"
INDEX 01 00:00:00

Год выпуска: 2005
Продолжительность: 02:39:54
Треклист:

01. Home (04:41)
02. Time Slide (05:01)
03. Insum (08:24)
04. Star Fruit (01:06)
05. Magnetosphere (Star Fruit Part 2) (02:45)
06. Stereo Hypnosis (Magnetosphere Part 2) (04:08)
07. Air Song (12:21)
08. Cocoon Moon (Glastonbury Festival 2005 Mix) (10:37)
09. Monogram (15:45)
10. Times Are Good (07:42)
11. Leaving Home (07:27)
12. Leaving Home (Full album continuous mix) (01:19:57)
Год выпуска: 2007
Продолжительность: 01:19:31
Треклист:

01. Summer (08:31)
02. Kick Back (08:54)
03. Black Arrow (10:03)
04. Brainbow (11:22)
05. Spectral Nation (12:02)
06. Adjustment (09:50)
07. February (09:43)
08. Cruise (09:06)

Exact Audio Copy V0.99 prebeta 5 from 4. May 2009

EAC extraction logfile from 8. January 2011, 1:05

Solar Fields / Earthshine

Used drive : Optiarc DVD RW AD-7200S Adapter: 1 ID: 1

Read mode : Secure
Utilize accurate stream : Yes
Defeat audio cache : Yes
Make use of C2 pointers : No

Read offset correction : 48
Overread into Lead-In and Lead-Out : No
Fill up missing offset samples with silence : Yes
Delete leading and trailing silent blocks : No
Null samples used in CRC calculations : Yes
Used interface : Native Win32 interface for Win NT & 2000
Gap handling : Appended to previous track

Used output format : User Defined Encoder
Selected bitrate : 320 kBit/s
Quality : High
Add ID3 tag : No
Command line compressor : C:\Program Files\Exact Audio Copy\Flac\flac.exe
Additional command line options : -8 -V -T "ARTIST=%a" -T "TITLE=%t" -T "ALBUM=%g" -T "DATE=%y" -T "TRACKNUMBER=%n" -T "GENRE=%m" -T "COMMENT=EAC FLAC -8" %s

TOC of the extracted CD

Track | Start | Length | Start sector | End sector
---------------------------------------------------------
1 | 0:00.00 | 8:31.12 | 0 | 38336
2 | 8:31.12 | 8:53.56 | 38337 | 78367
3 | 17:24.68 | 10:02.43 | 78368 | 123560
4 | 27:27.36 | 11:22.04 | 123561 | 174714
5 | 38:49.40 | 12:02.25 | 174715 | 228889
6 | 50:51.65 | 9:49.74 | 228890 | 273138
7 | 60:41.64 | 9:42.42 | 273139 | 316830
8 | 70:24.31 | 9:05.62 | 316831 | 357767

Track 1

Filename F:\Solar Fields - Earthshine\01 - Summer.wav

Pre-gap length 0:00:02.00

Peak level 92.2 %
Track quality 100.0 %
Test CRC E2670ECC
Copy CRC E2670ECC
Accurately ripped (confidence 17) [26881CF4]
Copy OK

Track 2

Filename F:\Solar Fields - Earthshine\02 - Kick Back.wav

Pre-gap length 0:00:02.00

Peak level 92.2 %
Track quality 100.0 %
Test CRC 778B57E7
Copy CRC 778B57E7
Accurately ripped (confidence 20) [4FEA84AF]
Copy OK

Track 3

Filename F:\Solar Fields - Earthshine\03 - Black Arrow.wav

Pre-gap length 0:00:02.00

Peak level 92.2 %
Track quality 100.0 %
Test CRC 5D7BC212
Copy CRC 5D7BC212
Accurately ripped (confidence 19) [4EC675C0]
Copy OK

Track 4

Filename F:\Solar Fields - Earthshine\04 - Brainbow.wav

Pre-gap length 0:00:02.00

Peak level 92.2 %
Track quality 99.9 %
Test CRC 4ED5BF29
Copy CRC 4ED5BF29
Accurately ripped (confidence 19) [E8F5C216]
Copy OK

Track 5

Filename F:\Solar Fields - Earthshine\05 - Spectral Nation.wav

Pre-gap length 0:00:02.00

Peak level 92.2 %
Track quality 100.0 %
Test CRC E7E85B76
Copy CRC E7E85B76
Accurately ripped (confidence 20) [DA5788A9]
Copy OK

Track 6

Filename F:\Solar Fields - Earthshine\06 - Adjustment.wav

Pre-gap length 0:00:02.00

Peak level 92.2 %
Track quality 100.0 %
Test CRC E91125C0
Copy CRC E91125C0
Accurately ripped (confidence 18) [3BAA2020]
Copy OK

Track 7

Filename F:\Solar Fields - Earthshine\07 - February.wav

Pre-gap length 0:00:02.00

Peak level 92.2 %
Track quality 100.0 %
Test CRC 774484B5
Copy CRC 774484B5
Accurately ripped (confidence 19) [D878E4D4]
Copy OK

Track 8

Filename F:\Solar Fields - Earthshine\08 - Cruise.wav

Pre-gap length 0:00:02.00

Peak level 92.2 %
Track quality 100.0 %
Test CRC 9E95C36B
Copy CRC 9E95C36B
Accurately ripped (confidence 15) [771A7486]
Copy OK

All tracks accurately ripped

No errors occurred

End of status report


REM GENRE Ambient
REM DATE 2007
REM DISCID 5C12A208
REM COMMENT "ExactAudioCopy v0.99pb5"
PERFORMER "Solar Fields"
TITLE "Earthshine"
FILE "01 - Summer.wav" WAVE
TRACK 01 AUDIO
TITLE "Summer"
PERFORMER "Solar Fields"
FLAGS DCP
INDEX 01 00:00:00
TRACK 02 AUDIO
TITLE "Kick Back"
PERFORMER "Solar Fields"
FLAGS DCP
INDEX 00 08:29:12
FILE "02 - Kick Back.wav" WAVE
INDEX 01 00:00:00
TRACK 03 AUDIO
TITLE "Black Arrow"
PERFORMER "Solar Fields"
FLAGS DCP
INDEX 00 08:51:56
FILE "03 - Black Arrow.wav" WAVE
INDEX 01 00:00:00
TRACK 04 AUDIO
TITLE "Brainbow"
PERFORMER "Solar Fields"
FLAGS DCP
INDEX 00 10:00:43
FILE "04 - Brainbow.wav" WAVE
INDEX 01 00:00:00
TRACK 05 AUDIO
TITLE "Spectral Nation"
PERFORMER "Solar Fields"
FLAGS DCP
INDEX 00 11:20:04
FILE "05 - Spectral Nation.wav" WAVE
INDEX 01 00:00:00
TRACK 06 AUDIO
TITLE "Adjustment"
PERFORMER "Solar Fields"
FLAGS DCP
INDEX 00 12:00:25
FILE "06 - Adjustment.wav" WAVE
INDEX 01 00:00:00
TRACK 07 AUDIO
TITLE "February"
PERFORMER "Solar Fields"
FLAGS DCP
INDEX 00 09:47:74
FILE "07 - February.wav" WAVE
INDEX 01 00:00:00
TRACK 08 AUDIO
TITLE "Cruise"
PERFORMER "Solar Fields"
FLAGS DCP
INDEX 00 09:40:42
FILE "08 - Cruise.wav" WAVE
INDEX 01 00:00:00

Год выпуска: 2014
Продолжительность: 01:19:15
Треклист:

01. Introduction (05:34)
02. Edge & Flight (06:56)
03. Jacknife (06:25)
04. Heat (07:01)
05. Ropeburn (07:15)
06. New Eden (07:52)
07. Pirandello Kruger (07:09)
08. Boat (07:30)
09. Kate (07:13)
10. Shard (07:17)
11. Still Alive (04:34)
12. Still Alive (Instrumental) (04:29)
Год выпуска: 2009
Продолжительность: 01:19:38
Треклист:

01. Sol (07:44)
02. Circles Of Motion (08:09)
03. Discovering (11:04)
04. Sky Trees (07:05)
05. The Stones Are Not Too Busy (09:21)
06. Dust (05:01)
07. Das Bungalow (05:33)
08. Feelings (Album Edit) (07:12)
09. Patterns (04:08)
10. The Road To Nothingness (06:46)
11. Breeze (07:35)

Exact Audio Copy V0.99 prebeta 4 from 23. January 2008

EAC extraction logfile from 16. January 2009, 20:12

Solar Fields / [Movements]

Used drive : HL-DT-STBDDVDRW GGC-H20L Adapter: 0 ID: 1

Read mode : Secure
Utilize accurate stream : Yes
Defeat audio cache : Yes
Make use of C2 pointers : No

Read offset correction : 667
Overread into Lead-In and Lead-Out : No
Fill up missing offset samples with silence : Yes
Delete leading and trailing silent blocks : No
Null samples used in CRC calculations : Yes
Used interface : Native Win32 interface for Win NT & 2000
Gap handling : Appended to previous track

Used output format : User Defined Encoder
Selected bitrate : 128 kBit/s
Quality : High
Add ID3 tag : No
Command line compressor : C:\Program Files (x86)\Exact Audio Copy\Flac\flac.exe
Additional command line options : -V -8 -T "artist=%a" -T "title=%t" -T "album=%g" -T "date=%y" -T "tracknumber=%n" -T "genre=%m" %s

TOC of the extracted CD

Track | Start | Length | Start sector | End sector
---------------------------------------------------------
1 | 0:00.00 | 7:43.69 | 0 | 34793
2 | 7:43.69 | 8:09.22 | 34794 | 71490
3 | 15:53.16 | 11:03.48 | 71491 | 121263
4 | 26:56.64 | 7:04.68 | 121264 | 153131
5 | 34:01.57 | 9:21.20 | 153132 | 195226
6 | 43:23.02 | 5:01.03 | 195227 | 217804
7 | 48:24.05 | 5:33.23 | 217805 | 242802
8 | 53:57.28 | 7:12.20 | 242803 | 275222
9 | 61:09.48 | 4:08.09 | 275223 | 293831
10 | 65:17.57 | 6:45.55 | 293832 | 324261
11 | 72:03.37 | 7:34.56 | 324262 | 358367

Track 1

Filename C:\Users\Tobbe & Kiki\Music\Flac\Solar Fields - 2009 - [Movements]\01 - Sol.wav

Pre-gap length 0:00:02.00

Peak level 92.2 %
Track quality 100.0 %
Test CRC 8423B982
Copy CRC 8423B982
Track not present in AccurateRip database
Copy OK

Track 2

Filename C:\Users\Tobbe & Kiki\Music\Flac\Solar Fields - 2009 - [Movements]\02 - Circles Of Motion.wav

Peak level 92.2 %
Track quality 100.0 %
Test CRC C946EB03
Copy CRC C946EB03
Track not present in AccurateRip database
Copy OK

Track 3

Filename C:\Users\Tobbe & Kiki\Music\Flac\Solar Fields - 2009 - [Movements]\03 - Discovering.wav

Peak level 92.3 %
Track quality 100.0 %
Test CRC DAE18D5A
Copy CRC DAE18D5A
Track not present in AccurateRip database
Copy OK

Track 4

Filename C:\Users\Tobbe & Kiki\Music\Flac\Solar Fields - 2009 - [Movements]\04 - Sky Trees.wav

Peak level 92.2 %
Track quality 100.0 %
Test CRC 8488A69F
Copy CRC 8488A69F
Track not present in AccurateRip database
Copy OK

Track 5

Filename C:\Users\Tobbe & Kiki\Music\Flac\Solar Fields - 2009 - [Movements]\05 - The Stones Are Not too Busy.wav

Peak level 92.2 %
Track quality 100.0 %
Test CRC 5BA42950
Copy CRC 5BA42950
Track not present in AccurateRip database
Copy OK

Track 6

Filename C:\Users\Tobbe & Kiki\Music\Flac\Solar Fields - 2009 - [Movements]\06 - Dust.wav

Peak level 92.2 %
Track quality 100.0 %
Test CRC 7CE70BC9
Copy CRC 7CE70BC9
Track not present in AccurateRip database
Copy OK

Track 7

Filename C:\Users\Tobbe & Kiki\Music\Flac\Solar Fields - 2009 - [Movements]\07 - Das Bungalow.wav

Peak level 92.2 %
Track quality 100.0 %
Test CRC 15F5AA52
Copy CRC 15F5AA52
Track not present in AccurateRip database
Copy OK

Track 8

Filename C:\Users\Tobbe & Kiki\Music\Flac\Solar Fields - 2009 - [Movements]\08 - Feelings (Album Edit).wav

Peak level 92.2 %
Track quality 100.0 %
Test CRC 6BF71680
Copy CRC 6BF71680
Track not present in AccurateRip database
Copy OK

Track 9

Filename C:\Users\Tobbe & Kiki\Music\Flac\Solar Fields - 2009 - [Movements]\09 - Patterns.wav

Peak level 92.2 %
Track quality 100.0 %
Test CRC C47A8E04
Copy CRC C47A8E04
Track not present in AccurateRip database
Copy OK

Track 10

Filename C:\Users\Tobbe & Kiki\Music\Flac\Solar Fields - 2009 - [Movements]\10 - The Road To Nothingness.wav

Peak level 95.5 %
Track quality 100.0 %
Test CRC 0803761A
Copy CRC 0803761A
Track not present in AccurateRip database
Copy OK

Track 11

Filename C:\Users\Tobbe & Kiki\Music\Flac\Solar Fields - 2009 - [Movements]\11 - Breeze.wav

Peak level 96.1 %
Track quality 100.0 %
Test CRC 053A65EC
Copy CRC 053A65EC
Track not present in AccurateRip database
Copy OK

None of the tracks are present in the AccurateRip database

No errors occurred

End of status report


Exact Audio Copy V0.99 prebeta 4 from 23. January 2008

EAC extraction logfile from 16. January 2009, 20:12

Solar Fields / [Movements]

Used drive : HL-DT-STBDDVDRW GGC-H20L Adapter: 0 ID: 1

Read mode : Secure
Utilize accurate stream : Yes
Defeat audio cache : Yes
Make use of C2 pointers : No

Read offset correction : 667
Overread into Lead-In and Lead-Out : No
Fill up missing offset samples with silence : Yes
Delete leading and trailing silent blocks : No
Null samples used in CRC calculations : Yes
Used interface : Native Win32 interface for Win NT & 2000
Gap handling : Appended to previous track

Used output format : User Defined Encoder
Selected bitrate : 128 kBit/s
Quality : High
Add ID3 tag : No
Command line compressor : C:\Program Files (x86)\Exact Audio Copy\Flac\flac.exe
Additional command line options : -V -8 -T "artist=%a" -T "title=%t" -T "album=%g" -T "date=%y" -T "tracknumber=%n" -T "genre=%m" %s

TOC of the extracted CD

Track | Start | Length | Start sector | End sector
---------------------------------------------------------
1 | 0:00.00 | 7:43.69 | 0 | 34793
2 | 7:43.69 | 8:09.22 | 34794 | 71490
3 | 15:53.16 | 11:03.48 | 71491 | 121263
4 | 26:56.64 | 7:04.68 | 121264 | 153131
5 | 34:01.57 | 9:21.20 | 153132 | 195226
6 | 43:23.02 | 5:01.03 | 195227 | 217804
7 | 48:24.05 | 5:33.23 | 217805 | 242802
8 | 53:57.28 | 7:12.20 | 242803 | 275222
9 | 61:09.48 | 4:08.09 | 275223 | 293831
10 | 65:17.57 | 6:45.55 | 293832 | 324261
11 | 72:03.37 | 7:34.56 | 324262 | 358367

Track 1

Filename C:\Users\Tobbe & Kiki\Music\Flac\Solar Fields - 2009 - [Movements]\01 - Sol.wav

Pre-gap length 0:00:02.00

Peak level 92.2 %
Track quality 100.0 %
Test CRC 8423B982
Copy CRC 8423B982
Track not present in AccurateRip database
Copy OK

Track 2

Filename C:\Users\Tobbe & Kiki\Music\Flac\Solar Fields - 2009 - [Movements]\02 - Circles Of Motion.wav

Peak level 92.2 %
Track quality 100.0 %
Test CRC C946EB03
Copy CRC C946EB03
Track not present in AccurateRip database
Copy OK

Track 3

Filename C:\Users\Tobbe & Kiki\Music\Flac\Solar Fields - 2009 - [Movements]\03 - Discovering.wav

Peak level 92.3 %
Track quality 100.0 %
Test CRC DAE18D5A
Copy CRC DAE18D5A
Track not present in AccurateRip database
Copy OK

Track 4

Filename C:\Users\Tobbe & Kiki\Music\Flac\Solar Fields - 2009 - [Movements]\04 - Sky Trees.wav

Peak level 92.2 %
Track quality 100.0 %
Test CRC 8488A69F
Copy CRC 8488A69F
Track not present in AccurateRip database
Copy OK

Track 5

Filename C:\Users\Tobbe & Kiki\Music\Flac\Solar Fields - 2009 - [Movements]\05 - The Stones Are Not too Busy.wav

Peak level 92.2 %
Track quality 100.0 %
Test CRC 5BA42950
Copy CRC 5BA42950
Track not present in AccurateRip database
Copy OK

Track 6

Filename C:\Users\Tobbe & Kiki\Music\Flac\Solar Fields - 2009 - [Movements]\06 - Dust.wav

Peak level 92.2 %
Track quality 100.0 %
Test CRC 7CE70BC9
Copy CRC 7CE70BC9
Track not present in AccurateRip database
Copy OK

Track 7

Filename C:\Users\Tobbe & Kiki\Music\Flac\Solar Fields - 2009 - [Movements]\07 - Das Bungalow.wav

Peak level 92.2 %
Track quality 100.0 %
Test CRC 15F5AA52
Copy CRC 15F5AA52
Track not present in AccurateRip database
Copy OK

Track 8

Filename C:\Users\Tobbe & Kiki\Music\Flac\Solar Fields - 2009 - [Movements]\08 - Feelings (Album Edit).wav

Peak level 92.2 %
Track quality 100.0 %
Test CRC 6BF71680
Copy CRC 6BF71680
Track not present in AccurateRip database
Copy OK

Track 9

Filename C:\Users\Tobbe & Kiki\Music\Flac\Solar Fields - 2009 - [Movements]\09 - Patterns.wav

Peak level 92.2 %
Track quality 100.0 %
Test CRC C47A8E04
Copy CRC C47A8E04
Track not present in AccurateRip database
Copy OK

Track 10

Filename C:\Users\Tobbe & Kiki\Music\Flac\Solar Fields - 2009 - [Movements]\10 - The Road To Nothingness.wav

Peak level 95.5 %
Track quality 100.0 %
Test CRC 0803761A
Copy CRC 0803761A
Track not present in AccurateRip database
Copy OK

Track 11

Filename C:\Users\Tobbe & Kiki\Music\Flac\Solar Fields - 2009 - [Movements]\11 - Breeze.wav

Peak level 96.1 %
Track quality 100.0 %
Test CRC 053A65EC
Copy CRC 053A65EC
Track not present in AccurateRip database
Copy OK

None of the tracks are present in the AccurateRip database

No errors occurred

End of status report

Год выпуска: 2009
Продолжительность: 01:29:17
Треклист:

01. Sol (08:31)
02. Circles Of Motion (09:43)
03. Discovering (10:54)
04. Sky Trees (09:02)
05. The Stones Are Not Too Busy (10:29)
06. Dust (06:04)
07. Das Bungalow (06:54)
08. Feelings (Album Edit) (07:31)
09. Patterns (04:40)
10. The Road To Nothingness (06:57)
11. Breeze (08:32)
Год выпуска: 2010
Продолжительность: 01:19:11
Треклист:

01. Insolate (09:15)
02. eMotion Of Circles (07:23)
03. Rediscover (09:45)
04. Closing The Sky (06:34)
05. Our Blue Stones (06:23)
06. Universal Dust (06:25)
07. Bngl.w (07:20)
08. Feel (08:42)
09. Changing Patterns (04:11)
10. Staring Into The Nothingness (07:31)
11. A Breeze Through Life (05:42)

Exact Audio Copy V1.0 beta 3 from 29. August 2011

EAC extraction logfile from 1. November 2012, 22:33

Solar Fields / Altered - Second Movements

Used drive : PIONEER DVD-RW DVR-111L Adapter: 1 ID: 1

Read mode : Secure
Utilize accurate stream : Yes
Defeat audio cache : Yes
Make use of C2 pointers : No

Read offset correction : 48
Overread into Lead-In and Lead-Out : No
Fill up missing offset samples with silence : Yes
Delete leading and trailing silent blocks : No
Null samples used in CRC calculations : Yes
Used interface : Native Win32 interface for Win NT & 2000
Gap handling : Appended to previous track

Used output format : User Defined Encoder
Selected bitrate : 320 kBit/s
Quality : High
Add ID3 tag : No
Command line compressor : C:\Program Files (x86)\Exact Audio Copy\Flac\flac.exe
Additional command line options : -V -8 -T "Genre=%genre%" -T "Artist=%artist%" -T "Title=%title%" -T "Album=%albumtitle%" -T "Date=%year%" -T "Tracknumber=%tracknr%" -T "Albumartist=%albuminterpret%" -T "Composer=%composer%" -T "Comment=%comment%" %source%

TOC of the extracted CD

Track | Start | Length | Start sector | End sector
---------------------------------------------------------
1 | 0:00.00 | 9:15.04 | 0 | 41628
2 | 9:15.04 | 7:22.62 | 41629 | 74840
3 | 16:37.66 | 9:45.34 | 74841 | 118749
4 | 26:23.25 | 6:34.21 | 118750 | 148320
5 | 32:57.46 | 6:23.03 | 148321 | 177048
6 | 39:20.49 | 6:24.54 | 177049 | 205902
7 | 45:45.28 | 7:20.10 | 205903 | 238912
8 | 53:05.38 | 8:42.32 | 238913 | 278094
9 | 61:47.70 | 4:10.46 | 278095 | 296890
10 | 65:58.41 | 7:30.46 | 296891 | 330686
11 | 73:29.12 | 5:42.24 | 330687 | 356360

Track 1

Filename K:\Music (Lossless)\Solar Fields\2010 - Altered - Second Movements\01 - Insolate.wav

Pre-gap length 0:00:02.00

Peak level 86.1 %
Extraction speed 4.4 X
Track quality 100.0 %
Test CRC 7CC917B5
Copy CRC 7CC917B5
Accurately ripped (confidence 8) [07969C7B] (AR v2)
Copy OK

Track 2

Filename K:\Music (Lossless)\Solar Fields\2010 - Altered - Second Movements\02 - eMotion of Circles.wav

Peak level 91.0 %
Extraction speed 5.0 X
Track quality 100.0 %
Test CRC DF42E727
Copy CRC DF42E727
Accurately ripped (confidence 8) [C89633C4] (AR v2)
Copy OK

Track 3

Filename K:\Music (Lossless)\Solar Fields\2010 - Altered - Second Movements\03 - Rediscover.wav

Peak level 92.2 %
Extraction speed 5.7 X
Track quality 100.0 %
Test CRC 0E474FA8
Copy CRC 0E474FA8
Accurately ripped (confidence 8) [87E65D2B] (AR v2)
Copy OK

Track 4

Filename K:\Music (Lossless)\Solar Fields\2010 - Altered - Second Movements\04 - Closing the Sky.wav

Peak level 92.2 %
Extraction speed 6.0 X
Track quality 100.0 %
Test CRC BE730B87
Copy CRC BE730B87
Accurately ripped (confidence 8) [B6878F55] (AR v2)
Copy OK

Track 5

Filename K:\Music (Lossless)\Solar Fields\2010 - Altered - Second Movements\05 - Our Blue Stones.wav

Peak level 91.3 %
Extraction speed 6.4 X
Track quality 100.0 %
Test CRC E9A963C2
Copy CRC E9A963C2
Accurately ripped (confidence 8) [AFAD11D0] (AR v2)
Copy OK

Track 6

Filename K:\Music (Lossless)\Solar Fields\2010 - Altered - Second Movements\06 - Universal Dust.wav

Peak level 91.2 %
Extraction speed 6.7 X
Track quality 100.0 %
Test CRC 830BC4F4
Copy CRC 830BC4F4
Accurately ripped (confidence 8) [1644999A] (AR v2)
Copy OK

Track 7

Filename K:\Music (Lossless)\Solar Fields\2010 - Altered - Second Movements\07 - Bngl.w.wav

Peak level 91.2 %
Extraction speed 7.1 X
Track quality 100.0 %
Test CRC 0C260437
Copy CRC 0C260437
Accurately ripped (confidence 9) [65905979] (AR v2)
Copy OK

Track 8

Filename K:\Music (Lossless)\Solar Fields\2010 - Altered - Second Movements\08 - Feel.wav

Peak level 92.2 %
Extraction speed 7.5 X
Track quality 100.0 %
Test CRC 7A333EE8
Copy CRC 7A333EE8
Accurately ripped (confidence 8) [BEA2B1CB] (AR v2)
Copy OK

Track 9

Filename K:\Music (Lossless)\Solar Fields\2010 - Altered - Second Movements\09 - Changing Patterns.wav

Peak level 91.8 %
Extraction speed 7.3 X
Track quality 100.0 %
Test CRC C64B613E
Copy CRC C64B613E
Accurately ripped (confidence 8) [7BA7D122] (AR v2)
Copy OK

Track 10

Filename K:\Music (Lossless)\Solar Fields\2010 - Altered - Second Movements\10 - Staring Into the Nothingness.wav

Peak level 89.9 %
Extraction speed 8.0 X
Track quality 100.0 %
Test CRC D4BD08AD
Copy CRC D4BD08AD
Accurately ripped (confidence 8) [C9350E5E] (AR v2)
Copy OK

Track 11

Filename K:\Music (Lossless)\Solar Fields\2010 - Altered - Second Movements\11 - A Breeze Through Life.wav

Peak level 88.2 %
Extraction speed 7.3 X
Track quality 99.9 %
Test CRC BA4660EC
Copy CRC BA4660EC
Accurately ripped (confidence 8) [44DC0DFC] (AR v2)
Copy OK

All tracks accurately ripped

No errors occurred

End of status report

==== Log checksum CEE9FD61C40351551F391EE2DF6E6FC014552227D4307A04C95D5B35B2C423E1 ====


REM GENRE Ambient
REM DATE 2010
REM DISCID BE128F0B
REM COMMENT "ExactAudioCopy v1.0b3"
PERFORMER "Solar Fields"
TITLE "Altered - Second Movements"
FILE "01 - Insolate.wav" WAVE
TRACK 01 AUDIO
TITLE "Insolate"
PERFORMER "Solar Fields"
INDEX 01 00:00:00
FILE "02 - eMotion of Circles.wav" WAVE
TRACK 02 AUDIO
TITLE "eMotion of Circles"
PERFORMER "Solar Fields"
INDEX 01 00:00:00
FILE "03 - Rediscover.wav" WAVE
TRACK 03 AUDIO
TITLE "Rediscover"
PERFORMER "Solar Fields"
INDEX 01 00:00:00
FILE "04 - Closing the Sky.wav" WAVE
TRACK 04 AUDIO
TITLE "Closing the Sky"
PERFORMER "Solar Fields"
INDEX 01 00:00:00
FILE "05 - Our Blue Stones.wav" WAVE
TRACK 05 AUDIO
TITLE "Our Blue Stones"
PERFORMER "Solar Fields"
INDEX 01 00:00:00
FILE "06 - Universal Dust.wav" WAVE
TRACK 06 AUDIO
TITLE "Universal Dust"
PERFORMER "Solar Fields"
INDEX 01 00:00:00
FILE "07 - Bngl.w.wav" WAVE
TRACK 07 AUDIO
TITLE "Bngl.w"
PERFORMER "Solar Fields"
INDEX 01 00:00:00
FILE "08 - Feel.wav" WAVE
TRACK 08 AUDIO
TITLE "Feel"
PERFORMER "Solar Fields"
INDEX 01 00:00:00
FILE "09 - Changing Patterns.wav" WAVE
TRACK 09 AUDIO
TITLE "Changing Patterns"
PERFORMER "Solar Fields"
INDEX 01 00:00:00
FILE "10 - Staring Into the Nothingness.wav" WAVE
TRACK 10 AUDIO
TITLE "Staring Into the Nothingness"
PERFORMER "Solar Fields"
INDEX 01 00:00:00
FILE "11 - A Breeze Through Life.wav" WAVE
TRACK 11 AUDIO
TITLE "A Breeze Through Life"
PERFORMER "Solar Fields"
INDEX 01 00:00:00

Год выпуска: 2010
Продолжительность: 02:45:40
Треклист:

01. Insolate (09:17)
02. eMotion Of Circles (08:25)
03. Rediscover (09:55)
04. Closing The Sky (06:46)
05. Our Blue Stones (06:43)
06. Universal Dust (06:18)
07. Bngl.w (08:00)
08. Feel (09:02)
09. Changing Patterns (05:02)
10. Staring Into The Nothingness (07:52)
11. A Breeze Through Life (09:09)
12. Altered - Second Movements (Full album continuous mix) (01:19:11)
Год выпуска: 2010
Продолжительность: 01:19:12
Треклист:

01. Silent Walking (06:41)
02. Unite (09:25)
03. Bigger Stream (06:17)
04. Almost There (07:17)
05. Next Waiting (07:42)
06. Embraced (05:27)
07. Going In (07:50)
08. Automatic Sun (03:32)
09. Reborn (09:11)
10. OCT (15:50)

Exact Audio Copy V0.99 prebeta 5 from 4. May 2009

EAC extraction logfile from 16. December 2010, 11:58

Solar Fields / Origin # 01

Used drive : HL-DT-STDVD-RAM GH22LS30 Adapter: 1 ID: 0

Read mode : Secure
Utilize accurate stream : Yes
Defeat audio cache : Yes
Make use of C2 pointers : No

Read offset correction : 102
Overread into Lead-In and Lead-Out : No
Fill up missing offset samples with silence : Yes
Delete leading and trailing silent blocks : No
Null samples used in CRC calculations : Yes
Used interface : Installed external ASPI interface
Gap handling : Appended to previous track

Used output format : User Defined Encoder
Selected bitrate : 128 kBit/s
Quality : High
Add ID3 tag : No
Command line compressor : C:\Program Files (x86)\Exact Audio Copy\Flac\flac.exe
Additional command line options : -V -8 -T "artist=%a" -T "title=%t" -T "album=%g" -T "date=%y" -T "tracknumber=%n" -T "genre=%m" %s

TOC of the extracted CD

Track | Start | Length | Start sector | End sector
---------------------------------------------------------
1 | 0:00.00 | 6:40.61 | 0 | 30060
2 | 6:40.61 | 9:25.28 | 30061 | 72463
3 | 16:06.14 | 6:16.57 | 72464 | 100720
4 | 22:22.71 | 7:17.31 | 100721 | 133526
5 | 29:40.27 | 7:41.63 | 133527 | 168164
6 | 37:22.15 | 5:26.45 | 168165 | 192659
7 | 42:48.60 | 7:49.62 | 192660 | 227896
8 | 50:38.47 | 3:32.20 | 227897 | 243816
9 | 54:10.67 | 9:11.28 | 243817 | 285169
10 | 63:22.20 | 15:50.05 | 285170 | 356424

Track 1

Filename Z:\media\Andmed\Muu\Upload\Solar Fields - 2010 - Origin # 01 [FLAC]\01 - Silent Walking.wav

Pre-gap length 0:00:02.00

Peak level 96.6 %
Track quality 99.9 %
Test CRC 9ABF6920
Copy CRC 9ABF6920
Track not present in AccurateRip database
Copy OK

Track 2

Filename Z:\media\Andmed\Muu\Upload\Solar Fields - 2010 - Origin # 01 [FLAC]\02 - Unite.wav

Pre-gap length 0:00:02.00

Peak level 96.6 %
Track quality 100.0 %
Test CRC 35632C5C
Copy CRC 35632C5C
Track not present in AccurateRip database
Copy OK

Track 3

Filename Z:\media\Andmed\Muu\Upload\Solar Fields - 2010 - Origin # 01 [FLAC]\03 - Bigger Stream.wav

Pre-gap length 0:00:02.00

Peak level 96.6 %
Track quality 100.0 %
Test CRC 94933D50
Copy CRC 94933D50
Track not present in AccurateRip database
Copy OK

Track 4

Filename Z:\media\Andmed\Muu\Upload\Solar Fields - 2010 - Origin # 01 [FLAC]\04 - Almost There.wav

Pre-gap length 0:00:02.00

Peak level 96.6 %
Track quality 100.0 %
Test CRC 69DAC80C
Copy CRC 69DAC80C
Track not present in AccurateRip database
Copy OK

Track 5

Filename Z:\media\Andmed\Muu\Upload\Solar Fields - 2010 - Origin # 01 [FLAC]\05 - Next Waiting.wav

Pre-gap length 0:00:02.00

Peak level 96.6 %
Track quality 100.0 %
Test CRC 76E55E2C
Copy CRC 76E55E2C
Track not present in AccurateRip database
Copy OK

Track 6

Filename Z:\media\Andmed\Muu\Upload\Solar Fields - 2010 - Origin # 01 [FLAC]\06 - Embraced.wav

Pre-gap length 0:00:02.00

Peak level 96.6 %
Track quality 100.0 %
Test CRC 65CABE8E
Copy CRC 65CABE8E
Track not present in AccurateRip database
Copy OK

Track 7

Filename Z:\media\Andmed\Muu\Upload\Solar Fields - 2010 - Origin # 01 [FLAC]\07 - Going In.wav

Pre-gap length 0:00:02.00

Peak level 96.6 %
Track quality 100.0 %
Test CRC A72515CC
Copy CRC A72515CC
Track not present in AccurateRip database
Copy OK

Track 8

Filename Z:\media\Andmed\Muu\Upload\Solar Fields - 2010 - Origin # 01 [FLAC]\08 - Automatic Sun.wav

Pre-gap length 0:00:02.00

Peak level 96.6 %
Track quality 100.0 %
Test CRC 392D3604
Copy CRC 392D3604
Track not present in AccurateRip database
Copy OK

Track 9

Filename Z:\media\Andmed\Muu\Upload\Solar Fields - 2010 - Origin # 01 [FLAC]\09 - Reborn.wav

Pre-gap length 0:00:02.00

Peak level 96.6 %
Track quality 100.0 %
Test CRC 69D5BE12
Copy CRC 69D5BE12
Track not present in AccurateRip database
Copy OK

Track 10

Filename Z:\media\Andmed\Muu\Upload\Solar Fields - 2010 - Origin # 01 [FLAC]\10 - OCT.wav

Pre-gap length 0:00:02.00

Peak level 98.0 %
Track quality 100.0 %
Test CRC 5AA9E6FC
Copy CRC 5AA9E6FC
Track not present in AccurateRip database
Copy OK

None of the tracks are present in the AccurateRip database

No errors occurred

End of status report


REM GENRE Ambient
REM DATE 2010
REM DISCID 7912900A
REM COMMENT "ExactAudioCopy v0.99pb5"
FILE "01 - Silent Walking.wav" WAVE
TRACK 01 AUDIO
INDEX 01 00:00:00
TRACK 02 AUDIO
INDEX 00 06:38:61
FILE "02 - Unite.wav" WAVE
INDEX 01 00:00:00
TRACK 03 AUDIO
INDEX 00 09:23:28
FILE "03 - Bigger Stream.wav" WAVE
INDEX 01 00:00:00
TRACK 04 AUDIO
INDEX 00 06:14:57
FILE "04 - Almost There.wav" WAVE
INDEX 01 00:00:00
TRACK 05 AUDIO
INDEX 00 07:15:31
FILE "05 - Next Waiting.wav" WAVE
INDEX 01 00:00:00
TRACK 06 AUDIO
INDEX 00 07:39:63
FILE "06 - Embraced.wav" WAVE
INDEX 01 00:00:00
TRACK 07 AUDIO
INDEX 00 05:24:45
FILE "07 - Going In.wav" WAVE
INDEX 01 00:00:00
TRACK 08 AUDIO
INDEX 00 07:47:62
FILE "08 - Automatic Sun.wav" WAVE
INDEX 01 00:00:00
TRACK 09 AUDIO
INDEX 00 03:30:20
FILE "09 - Reborn.wav" WAVE
INDEX 01 00:00:00
TRACK 10 AUDIO
INDEX 00 09:09:28
FILE "10 - OCT.wav" WAVE
INDEX 01 00:00:00

Год выпуска: 2011
Продолжительность: 00:07:40
Треклист:

01. Tripswitch - Stereogram (Solar Fields Remix) (07:40)
Год выпуска: 2011
Продолжительность: 01:18:53
Треклист:

01. From The Next End (09:17)
02. Broken Radio Echo (03:56)
03. Singing Machine (06:55)
04. After Midnight, They Speak (03:40)
05. When The Worlds Collide (06:33)
06. Dialogue With A River (10:07)
07. Forgotten (03:15)
08. Night Traffic City (09:54)
09. Sombrero (05:44)
10. Last Step In Vacuum (09:13)
11. Until We Meet The Sky (05:02)
12. Epilogue (05:17)

Exact Audio Copy V1.0 beta 3 from 29. August 2011

EAC extraction logfile from 2. September 2013, 13:21

Solar Fields / Until We Meet The Sky

Used drive : PIONEER DVD-RW DVR-111L Adapter: 1 ID: 1

Read mode : Secure
Utilize accurate stream : Yes
Defeat audio cache : Yes
Make use of C2 pointers : No

Read offset correction : 48
Overread into Lead-In and Lead-Out : No
Fill up missing offset samples with silence : Yes
Delete leading and trailing silent blocks : No
Null samples used in CRC calculations : Yes
Used interface : Native Win32 interface for Win NT & 2000
Gap handling : Appended to previous track

Used output format : User Defined Encoder
Selected bitrate : 320 kBit/s
Quality : High
Add ID3 tag : No
Command line compressor : C:\Program Files (x86)\Exact Audio Copy\Flac\flac.exe
Additional command line options : -V -8 -T "Genre=%genre%" -T "Artist=%artist%" -T "Title=%title%" -T "Album=%albumtitle%" -T "Date=%year%" -T "Tracknumber=%tracknr%" -T "Albumartist=%albuminterpret%" -T "Composer=%composer%" -T "Comment=%comment%" %source%

TOC of the extracted CD

Track | Start | Length | Start sector | End sector
---------------------------------------------------------
1 | 0:00.00 | 9:16.73 | 0 | 41772
2 | 9:16.73 | 3:55.44 | 41773 | 59441
3 | 13:12.42 | 6:55.02 | 59442 | 90568
4 | 20:07.44 | 3:40.28 | 90569 | 107096
5 | 23:47.72 | 6:33.32 | 107097 | 136603
6 | 30:21.29 | 10:06.46 | 136604 | 182099
7 | 40:28.00 | 3:15.15 | 182100 | 196739
8 | 43:43.15 | 9:53.55 | 196740 | 241269
9 | 53:36.70 | 5:43.55 | 241270 | 267049
10 | 59:20.50 | 9:12.48 | 267050 | 308497
11 | 68:33.23 | 5:01.57 | 308498 | 331129
12 | 73:35.05 | 5:17.35 | 331130 | 354939

Track 1

Filename K:\Music (Lossless)\Solar Fields\2011 - Until We Meet The Sky [inre 053]\01 - From The Next End.wav

Pre-gap length 0:00:02.00

Peak level 89.7 %
Extraction speed 4.4 X
Track quality 100.0 %
Test CRC 91CDBF30
Copy CRC 91CDBF30
Accurately ripped (confidence 25) [D7946F5E] (AR v2)
Copy OK

Track 2

Filename K:\Music (Lossless)\Solar Fields\2011 - Until We Meet The Sky [inre 053]\02 - Broken Radio Echo.wav

Peak level 78.6 %
Extraction speed 4.6 X
Track quality 100.0 %
Test CRC 3838F87C
Copy CRC 3838F87C
Accurately ripped (confidence 25) [DA4FB1D4] (AR v2)
Copy OK

Track 3

Filename K:\Music (Lossless)\Solar Fields\2011 - Until We Meet The Sky [inre 053]\03 - Singing Machine.wav

Peak level 93.6 %
Extraction speed 5.2 X
Track quality 100.0 %
Test CRC 1E2CA954
Copy CRC 1E2CA954
Accurately ripped (confidence 25) [A386DF9D] (AR v2)
Copy OK

Track 4

Filename K:\Music (Lossless)\Solar Fields\2011 - Until We Meet The Sky [inre 053]\04 - After Midnight, They Speak.wav

Peak level 55.7 %
Extraction speed 5.2 X
Track quality 100.0 %
Test CRC DF8A8AB7
Copy CRC DF8A8AB7
Accurately ripped (confidence 25) [9876FA4C] (AR v2)
Copy OK

Track 5

Filename K:\Music (Lossless)\Solar Fields\2011 - Until We Meet The Sky [inre 053]\05 - When The Worlds Collide.wav

Peak level 96.6 %
Extraction speed 5.4 X
Track quality 99.9 %
Test CRC 2684C0A8
Copy CRC 2684C0A8
Accurately ripped (confidence 25) [FE745F83] (AR v2)
Copy OK

Track 6

Filename K:\Music (Lossless)\Solar Fields\2011 - Until We Meet The Sky [inre 053]\06 - Dialogue With A River.wav

Peak level 96.6 %
Extraction speed 6.5 X
Track quality 100.0 %
Test CRC 8808098C
Copy CRC 8808098C
Accurately ripped (confidence 25) [2ADE0619] (AR v2)
Copy OK

Track 7

Filename K:\Music (Lossless)\Solar Fields\2011 - Until We Meet The Sky [inre 053]\07 - Forgotten.wav

Peak level 59.3 %
Extraction speed 5.3 X
Track quality 99.9 %
Test CRC C914F896
Copy CRC C914F896
Accurately ripped (confidence 25) [78C2CFDC] (AR v2)
Copy OK

Track 8

Filename K:\Music (Lossless)\Solar Fields\2011 - Until We Meet The Sky [inre 053]\08 - Night Traffic City.wav

Peak level 96.6 %
Extraction speed 7.1 X
Track quality 100.0 %
Test CRC 9F69E45A
Copy CRC 9F69E45A
Accurately ripped (confidence 25) [3060335F] (AR v2)
Copy OK

Track 9

Filename K:\Music (Lossless)\Solar Fields\2011 - Until We Meet The Sky [inre 053]\09 - Sombrero.wav

Peak level 96.6 %
Extraction speed 7.2 X
Track quality 100.0 %
Test CRC D0558218
Copy CRC D0558218
Accurately ripped (confidence 25) [34D7B203] (AR v2)
Copy OK

Track 10

Filename K:\Music (Lossless)\Solar Fields\2011 - Until We Meet The Sky [inre 053]\10 - Last Step In Vacuum.wav

Peak level 96.6 %
Extraction speed 7.8 X
Track quality 100.0 %
Test CRC C096E8EB
Copy CRC C096E8EB
Accurately ripped (confidence 25) [739FA634] (AR v2)
Copy OK

Track 11

Filename K:\Music (Lossless)\Solar Fields\2011 - Until We Meet The Sky [inre 053]\11 - Until We Meet The Sky.wav

Peak level 96.6 %
Extraction speed 7.0 X
Track quality 99.9 %
Test CRC 132DCC41
Copy CRC 132DCC41
Accurately ripped (confidence 25) [FE088299] (AR v2)
Copy OK

Track 12

Filename K:\Music (Lossless)\Solar Fields\2011 - Until We Meet The Sky [inre 053]\12 - Epilogue.wav

Peak level 96.6 %
Extraction speed 8.0 X
Track quality 100.0 %
Test CRC 2425D84F
Copy CRC 2425D84F
Accurately ripped (confidence 25) [286EA77E] (AR v2)
Copy OK

All tracks accurately ripped

No errors occurred

End of status report

==== Log checksum 9E0F87CDAC9079C6F9418DEAB3787C60709ACD1DFD1F83AE15E8A7A732F0E882 ====


REM GENRE Ambient
REM DATE 2011
REM DISCID A3127C0C
REM COMMENT "ExactAudioCopy v1.0b3"
PERFORMER "Solar Fields"
TITLE "Until We Meet The Sky"
FILE "01 - From The Next End.wav" WAVE
TRACK 01 AUDIO
TITLE "From The Next End"
PERFORMER "Solar Fields"
INDEX 01 00:00:00
FILE "02 - Broken Radio Echo.wav" WAVE
TRACK 02 AUDIO
TITLE "Broken Radio Echo"
PERFORMER "Solar Fields"
INDEX 01 00:00:00
FILE "03 - Singing Machine.wav" WAVE
TRACK 03 AUDIO
TITLE "Singing Machine"
PERFORMER "Solar Fields"
INDEX 01 00:00:00
FILE "04 - After Midnight, They Speak.wav" WAVE
TRACK 04 AUDIO
TITLE "After Midnight, They Speak"
PERFORMER "Solar Fields"
INDEX 01 00:00:00
FILE "05 - When The Worlds Collide.wav" WAVE
TRACK 05 AUDIO
TITLE "When The Worlds Collide"
PERFORMER "Solar Fields"
INDEX 01 00:00:00
FILE "06 - Dialogue With A River.wav" WAVE
TRACK 06 AUDIO
TITLE "Dialogue With A River"
PERFORMER "Solar Fields"
INDEX 01 00:00:00
FILE "07 - Forgotten.wav" WAVE
TRACK 07 AUDIO
TITLE "Forgotten"
PERFORMER "Solar Fields"
INDEX 01 00:00:00
FILE "08 - Night Traffic City.wav" WAVE
TRACK 08 AUDIO
TITLE "Night Traffic City"
PERFORMER "Solar Fields"
INDEX 01 00:00:00
FILE "09 - Sombrero.wav" WAVE
TRACK 09 AUDIO
TITLE "Sombrero"
PERFORMER "Solar Fields"
INDEX 01 00:00:00
FILE "10 - Last Step In Vacuum.wav" WAVE
TRACK 10 AUDIO
TITLE "Last Step In Vacuum"
PERFORMER "Solar Fields"
INDEX 01 00:00:00
FILE "11 - Until We Meet The Sky.wav" WAVE
TRACK 11 AUDIO
TITLE "Until We Meet The Sky"
PERFORMER "Solar Fields"
INDEX 01 00:00:00
FILE "12 - Epilogue.wav" WAVE
TRACK 12 AUDIO
TITLE "Epilogue"
PERFORMER "Solar Fields"
INDEX 01 00:00:00

Год выпуска: 2012
Продолжительность: 01:18:01
Треклист:

01. Light Control (04:57)
02. Random Friday (06:16)
03. Cobalt 2.5 (07:32)
04. In Motion (08:15)
05. Daydreaming (10:42)
06. Swoosh (07:40)
07. Landing Party (09:37)
08. Lift Off (09:31)
09. Perception (10:35)
10. Polarity (02:56)

Exact Audio Copy V1.0 beta 3 from 29. August 2011

EAC extraction logfile from 31. August 2013, 1:14

Solar Fields / Random Friday

Used drive : PIONEER DVD-RW DVR-111L Adapter: 1 ID: 1

Read mode : Secure
Utilize accurate stream : Yes
Defeat audio cache : Yes
Make use of C2 pointers : No

Read offset correction : 48
Overread into Lead-In and Lead-Out : No
Fill up missing offset samples with silence : Yes
Delete leading and trailing silent blocks : No
Null samples used in CRC calculations : Yes
Used interface : Native Win32 interface for Win NT & 2000
Gap handling : Appended to previous track

Used output format : User Defined Encoder
Selected bitrate : 320 kBit/s
Quality : High
Add ID3 tag : No
Command line compressor : C:\Program Files (x86)\Exact Audio Copy\Flac\flac.exe
Additional command line options : -V -8 -T "Genre=%genre%" -T "Artist=%artist%" -T "Title=%title%" -T "Album=%albumtitle%" -T "Date=%year%" -T "Tracknumber=%tracknr%" -T "Albumartist=%albuminterpret%" -T "Composer=%composer%" -T "Comment=%comment%" %source%

TOC of the extracted CD

Track | Start | Length | Start sector | End sector
---------------------------------------------------------
1 | 0:00.00 | 4:56.60 | 0 | 22259
2 | 4:56.60 | 6:16.20 | 22260 | 50479
3 | 11:13.05 | 7:31.69 | 50480 | 84373
4 | 18:44.74 | 8:14.40 | 84374 | 121463
5 | 26:59.39 | 10:42.08 | 121464 | 169621
6 | 37:41.47 | 7:39.67 | 169622 | 204113
7 | 45:21.39 | 9:37.05 | 204114 | 247393
8 | 54:58.44 | 9:31.07 | 247394 | 290225
9 | 64:29.51 | 10:34.54 | 290226 | 337829
10 | 75:04.30 | 2:55.49 | 337830 | 351003

Track 1

Filename F:\Solar Fields - 2012 - Random Friday\01 - Light Control.wav

Pre-gap length 0:00:02.00

Peak level 80.9 %
Extraction speed 3.6 X
Track quality 99.9 %
Test CRC 03B43401
Copy CRC 03B43401
Accurately ripped (confidence 17) [780E6D40] (AR v2)
Copy OK

Track 2

Filename F:\Solar Fields - 2012 - Random Friday\02 - Random Friday.wav

Peak level 96.6 %
Extraction speed 4.6 X
Track quality 100.0 %
Test CRC 7893E2C6
Copy CRC 7893E2C6
Accurately ripped (confidence 17) [948BE312] (AR v2)
Copy OK

Track 3

Filename F:\Solar Fields - 2012 - Random Friday\03 - Cobalt 2.5.wav

Peak level 96.5 %
Extraction speed 5.1 X
Track quality 100.0 %
Test CRC C6D678EE
Copy CRC C6D678EE
Accurately ripped (confidence 17) [4DF12F61] (AR v2)
Copy OK

Track 4

Filename F:\Solar Fields - 2012 - Random Friday\04 - In Motion.wav

Peak level 96.5 %
Extraction speed 5.7 X
Track quality 100.0 %
Test CRC 7CFCE1A2
Copy CRC 7CFCE1A2
Accurately ripped (confidence 17) [BCB20C50] (AR v2)
Copy OK

Track 5

Filename F:\Solar Fields - 2012 - Random Friday\05 - Daydreaming.wav

Peak level 96.5 %
Extraction speed 6.0 X
Track quality 99.9 %
Test CRC 4505502D
Copy CRC 4505502D
Accurately ripped (confidence 17) [5E379A02] (AR v2)
Copy OK

Track 6

Filename F:\Solar Fields - 2012 - Random Friday\06 - Swoosh.wav

Peak level 96.5 %
Extraction speed 6.7 X
Track quality 100.0 %
Test CRC 923657C1
Copy CRC 923657C1
Accurately ripped (confidence 17) [01D2C196] (AR v2)
Copy OK

Track 7

Filename F:\Solar Fields - 2012 - Random Friday\07 - Landing Party.wav

Peak level 96.6 %
Extraction speed 7.2 X
Track quality 100.0 %
Test CRC 000C2BBB
Copy CRC 000C2BBB
Accurately ripped (confidence 17) [68CB047B] (AR v2)
Copy OK

Track 8

Filename F:\Solar Fields - 2012 - Random Friday\08 - Lift Off.wav

Peak level 96.5 %
Extraction speed 7.6 X
Track quality 100.0 %
Test CRC D193AD40
Copy CRC D193AD40
Accurately ripped (confidence 17) [92C3A6B9] (AR v2)
Copy OK

Track 9

Filename F:\Solar Fields - 2012 - Random Friday\09 - Perception.wav

Peak level 96.6 %
Extraction speed 8.1 X
Track quality 100.0 %
Test CRC DBF2DEF4
Copy CRC DBF2DEF4
Accurately ripped (confidence 17) [AAA28C2B] (AR v2)
Copy OK

Track 10

Filename F:\Solar Fields - 2012 - Random Friday\10 - Polarity.wav

Peak level 86.2 %
Extraction speed 6.2 X
Track quality 99.9 %
Test CRC 66560B8B
Copy CRC 66560B8B
Accurately ripped (confidence 17) [E34353ED] (AR v2)
Copy OK

All tracks accurately ripped

No errors occurred

End of status report

==== Log checksum B44D1B97C933D6128BFCAF85F6818DB8A2A5DC373AF2D53B49A180AB3833D519 ====


REM GENRE "Progressive Trance, Ambient"
REM DATE 2012
REM DISCID 7E12480A
REM COMMENT "ExactAudioCopy v1.0b3"
PERFORMER "Solar Fields"
TITLE "Random Friday"
FILE "01 - Light Control.wav" WAVE
TRACK 01 AUDIO
TITLE "Light Control"
PERFORMER "Solar Fields"
INDEX 01 00:00:00
FILE "02 - Random Friday.wav" WAVE
TRACK 02 AUDIO
TITLE "Random Friday"
PERFORMER "Solar Fields"
INDEX 01 00:00:00
FILE "03 - Cobalt 2.5.wav" WAVE
TRACK 03 AUDIO
TITLE "Cobalt 2.5"
PERFORMER "Solar Fields"
INDEX 01 00:00:00
FILE "04 - In Motion.wav" WAVE
TRACK 04 AUDIO
TITLE "In Motion"
PERFORMER "Solar Fields"
INDEX 01 00:00:00
FILE "05 - Daydreaming.wav" WAVE
TRACK 05 AUDIO
TITLE "Daydreaming"
PERFORMER "Solar Fields"
INDEX 01 00:00:00
FILE "06 - Swoosh.wav" WAVE
TRACK 06 AUDIO
TITLE "Swoosh"
PERFORMER "Solar Fields"
INDEX 01 00:00:00
FILE "07 - Landing Party.wav" WAVE
TRACK 07 AUDIO
TITLE "Landing Party"
PERFORMER "Solar Fields"
INDEX 01 00:00:00
FILE "08 - Lift Off.wav" WAVE
TRACK 08 AUDIO
TITLE "Lift Off"
PERFORMER "Solar Fields"
INDEX 01 00:00:00
FILE "09 - Perception.wav" WAVE
TRACK 09 AUDIO
TITLE "Perception"
PERFORMER "Solar Fields"
INDEX 01 00:00:00
FILE "10 - Polarity.wav" WAVE
TRACK 10 AUDIO
TITLE "Polarity"
PERFORMER "Solar Fields"
INDEX 01 00:00:00

Год выпуска: 2013
Продолжительность: 00:07:35
Треклист:

01. Cluster (07:35)
Год выпуска: 2013
Продолжительность: 01:17:35
Треклист:

01. Landform (Origin 2005) (09:17)
02. Mystic Science (Origin 2007) (08:43)
03. Active Sky (Origin 2003) (06:55)
04. Echo (Origin 2009) (07:09)
05. Unknown Presence (Origin 2008) (05:50)
06. Surface (Origin 2007) (06:30)
07. Lifebook (Origin 2003) (08:12)
08. The Missing (Origin 2006) (09:36)
09. Falling Shadows (Origin 2005) (06:55)
10. Asteroid (Time Machine Lullaby) (Origin Unknown) (08:28)

Exact Audio Copy V1.0 beta 3 from 29. August 2011

EAC extraction logfile from 16. June 2014, 1:24

Solar Fields / Origin # 02

Used drive : ATAPI DVD A DH20A3H Adapter: 0 ID: 0

Read mode : Secure
Utilize accurate stream : Yes
Defeat audio cache : Yes
Make use of C2 pointers : No

Read offset correction : 6
Overread into Lead-In and Lead-Out : No
Fill up missing offset samples with silence : Yes
Delete leading and trailing silent blocks : No
Null samples used in CRC calculations : Yes
Used interface : Native Win32 interface for Win NT & 2000
Gap handling : Appended to previous track

Used output format : User Defined Encoder
Selected bitrate : 1024 kBit/s
Quality : High
Add ID3 tag : No
Command line compressor : C:\Program Files (x86)\Exact Audio Copy\Flac\flac.exe
Additional command line options : -V -8 -T "Genre=%genre%" -T "Artist=%artist%" -T "Title=%title%" -T "Album=%albumtitle%" -T "Date=%year%" -T "Tracknumber=%tracknr%" -T "Albumartist=%albuminterpret%" -T "Composer=%composer%" -T "Comment=%comment%" %source%

TOC of the extracted CD

Track | Start | Length | Start sector | End sector
---------------------------------------------------------
1 | 0:00.00 | 9:17.07 | 0 | 41781
2 | 9:17.07 | 8:42.67 | 41782 | 80998
3 | 17:59.74 | 6:55.37 | 80999 | 112160
4 | 24:55.36 | 7:09.29 | 112161 | 144364
5 | 32:04.65 | 5:50.25 | 144365 | 170639
6 | 37:55.15 | 6:30.00 | 170640 | 199889
7 | 44:25.15 | 8:12.35 | 199890 | 236824
8 | 52:37.50 | 9:36.02 | 236825 | 280026
9 | 62:13.52 | 6:55.18 | 280027 | 311169
10 | 69:08.70 | 8:28.11 | 311170 | 349280

Track 1

Filename D:\Solar Fields - 2013 - Origin #02 (inre 058)\01 - Landform.wav

Pre-gap length 0:00:02.00

Peak level 96.1 %
Extraction speed 5.0 X
Track quality 99.9 %
Test CRC A00B38E0
Copy CRC A00B38E0
Accurately ripped (confidence 13) [19A98B8B] (AR v2)
Copy OK

Track 2

Filename D:\Solar Fields - 2013 - Origin #02 (inre 058)\02 - Mystic Science.wav

Peak level 96.1 %
Extraction speed 5.8 X
Track quality 99.9 %
Test CRC F9882A60
Copy CRC F9882A60
Accurately ripped (confidence 14) [8FFC803A] (AR v2)
Copy OK

Track 3

Filename D:\Solar Fields - 2013 - Origin #02 (inre 058)\03 - Active Sky.wav

Peak level 96.1 %
Extraction speed 7.0 X
Track quality 100.0 %
Test CRC B8CE107E
Copy CRC B8CE107E
Accurately ripped (confidence 13) [9A28DB86] (AR v2)
Copy OK

Track 4

Filename D:\Solar Fields - 2013 - Origin #02 (inre 058)\04 - Echo.wav

Peak level 96.1 %
Extraction speed 7.6 X
Track quality 100.0 %
Test CRC D7CBC8D2
Copy CRC D7CBC8D2
Accurately ripped (confidence 14) [BBA94EAB] (AR v2)
Copy OK

Track 5

Filename D:\Solar Fields - 2013 - Origin #02 (inre 058)\05 - Unknown Presence.wav

Peak level 96.1 %
Extraction speed 7.9 X
Track quality 100.0 %
Test CRC FAC05EDC
Copy CRC FAC05EDC
Accurately ripped (confidence 14) [9909CC5F] (AR v2)
Copy OK

Track 6

Filename D:\Solar Fields - 2013 - Origin #02 (inre 058)\06 - Surface.wav

Peak level 96.8 %
Extraction speed 8.4 X
Track quality 100.0 %
Test CRC 2961BE34
Copy CRC 2961BE34
Accurately ripped (confidence 14) [50649A3F] (AR v2)
Copy OK

Track 7

Filename D:\Solar Fields - 2013 - Origin #02 (inre 058)\07 - Lifebook.wav

Peak level 96.1 %
Extraction speed 9.0 X
Track quality 100.0 %
Test CRC 9EE84EB4
Copy CRC 9EE84EB4
Accurately ripped (confidence 14) [FBDF0E99] (AR v2)
Copy OK

Track 8

Filename D:\Solar Fields - 2013 - Origin #02 (inre 058)\08 - The Missing.wav

Peak level 96.1 %
Extraction speed 8.7 X
Track quality 99.9 %
Test CRC 5D528379
Copy CRC 5D528379
Accurately ripped (confidence 14) [DD251665] (AR v2)
Copy OK

Track 9

Filename D:\Solar Fields - 2013 - Origin #02 (inre 058)\09 - Falling Shadows.wav

Peak level 96.1 %
Extraction speed 9.9 X
Track quality 100.0 %
Test CRC 0D9A87EC
Copy CRC 0D9A87EC
Accurately ripped (confidence 14) [7FAECCCE] (AR v2)
Copy OK

Track 10

Filename D:\Solar Fields - 2013 - Origin #02 (inre 058)\10 - Asteroid (Time Machine Lullaby).wav

Peak level 96.1 %
Extraction speed 10.5 X
Track quality 100.0 %
Test CRC 30782A3F
Copy CRC 30782A3F
Accurately ripped (confidence 14) [A4759BE8] (AR v2)
Copy OK

All tracks accurately ripped

No errors occurred

End of status report

---- CUETools DB Plugin V2.1.3

[CTDB TOCID: pm5ac4yyuMrtfbI_valSKOScuak-] found, Submit result: pm5ac4yyuMrtfbI_valSKOScuak- has been confirmed
[f22f26ed] (11/12) Accurately ripped
[af1ce1ff] (01/12) No match

==== Log checksum B6E1F98B5A4FCBAA1D52D3CCDA64A8941A63E5EA4879690F0B8BB9A3DCC82B57 ====


REM GENRE Ambient
REM DATE 2013
REM DISCID 9B12310A
REM COMMENT "ExactAudioCopy v1.0b3"
PERFORMER "Solar Fields"
TITLE "Origin # 02"
FILE "01 - Landform.wav" WAVE
TRACK 01 AUDIO
TITLE "Landform"
PERFORMER "Solar Fields"
INDEX 01 00:00:00
FILE "02 - Mystic Science.wav" WAVE
TRACK 02 AUDIO
TITLE "Mystic Science"
PERFORMER "Solar Fields"
INDEX 01 00:00:00
FILE "03 - Active Sky.wav" WAVE
TRACK 03 AUDIO
TITLE "Active Sky"
PERFORMER "Solar Fields"
INDEX 01 00:00:00
FILE "04 - Echo.wav" WAVE
TRACK 04 AUDIO
TITLE "Echo"
PERFORMER "Solar Fields"
INDEX 01 00:00:00
FILE "05 - Unknown Presence.wav" WAVE
TRACK 05 AUDIO
TITLE "Unknown Presence"
PERFORMER "Solar Fields"
INDEX 01 00:00:00
FILE "06 - Surface.wav" WAVE
TRACK 06 AUDIO
TITLE "Surface"
PERFORMER "Solar Fields"
INDEX 01 00:00:00
FILE "07 - Lifebook.wav" WAVE
TRACK 07 AUDIO
TITLE "Lifebook"
PERFORMER "Solar Fields"
INDEX 01 00:00:00
FILE "08 - The Missing.wav" WAVE
TRACK 08 AUDIO
TITLE "The Missing"
PERFORMER "Solar Fields"
INDEX 01 00:00:00
FILE "09 - Falling Shadows.wav" WAVE
TRACK 09 AUDIO
TITLE "Falling Shadows"
PERFORMER "Solar Fields"
INDEX 01 00:00:00
FILE "10 - Asteroid (Time Machine Lullaby).wav" WAVE
TRACK 10 AUDIO
TITLE "Asteroid (Time Machine Lullaby)"
PERFORMER "Solar Fields"
INDEX 01 00:00:00

Год выпуска: 2014
Продолжительность: 01:24:32
Треклист:

01. Life (06:38)
02. Good Times (07:45)
03. Air Song (Remix) (07:54)
04. Passage (07:41)
05. Water Silence (06:01)
06. Blue Moon Station (07:53)
07. Small Little Green Cubes (09:47)
08. Something Crystal (08:41)
09. Cloud-Kingdom (Solar Fields Remix) (10:45)
10. In Motion (Good Morning Edit) (11:27)

-----------------------

DON'T MODIFY THIS FILE

-----------------------

PERFORMER: auCDtect Task Manager, ver. 1.6.0 RC1 build 1.6.0.1
Copyright (c) 2008-2010 y-soft. All rights reserved
http://y-soft.org

ANALYZER: auCDtect: CD records authenticity detector, version 0.8.2
Copyright (c) 2004 Oleg Berngardt. All rights reserved.
Copyright (c) 2004 Alexander Djourik. All rights reserved.

FILE: 10 - In Motion (Good Morning Edit).flac
Size: 61855444 Hash: 65575866C3171F0E6FB93DDB0DB7AC42 Accuracy: -m0
Conclusion: CDDA 99%
Signature: 05EDC616CC8C8E27D7036B53801DCE78273F1008
FILE: 09 - Filteria - Cloud-Kingdom (Solar Fields Remix).flac
Size: 76395083 Hash: 30DEC663B77A623ED03F78D10E57E18B Accuracy: -m0
Conclusion: CDDA 100%
Signature: D4167E975B05B1D76F99B99FD7BB587932918EE4
FILE: 08 - Something Crystal.flac
Size: 54938840 Hash: 91F05FD6DB6116B20533306222E7473C Accuracy: -m0
Conclusion: CDDA 100%
Signature: A3C18B044E6C8CD4B1ACE91775673AB530420133
FILE: 07 - Small Little Green Cubes.flac
Size: 65147763 Hash: BEBCE3615B507BFF19BA245C67195B3A Accuracy: -m0
Conclusion: CDDA 100%
Signature: 981C151026890B92A23D250EEA549E32D2F5AD7E
FILE: 06 - Blue Moon Station.flac
Size: 49510176 Hash: D88306A5CB6F7E77C5A4618CACBA3EDF Accuracy: -m0
Conclusion: CDDA 100%
Signature: DFAE2983C3A6985EC93A45E9864194C06898B10E
FILE: 05 - Water Silence.flac
Size: 32013955 Hash: 2FDD8E913680ED55C0E3353A9628D840 Accuracy: -m0
Conclusion: CDDA 100%
Signature: 581ED42FDEE01AE366C8F1F842D4EEDE6DFC0CE9
FILE: 04 - Passage.flac
Size: 43504065 Hash: 219E0E4B558B1572AD68C1C65ADD7962 Accuracy: -m0
Conclusion: MPEG 95%
Signature: BAD3AC62B3F3CBCC090DC9946E7B1168B3B1BBD5
FILE: 03 - Air Song (Remix).flac
Size: 48156850 Hash: 1694A185C45E0D3CB03220F601C5B659 Accuracy: -m0
Conclusion: CDDA 99%
Signature: F12B4EB33D80C37923170C801EA965D1A7891DF9
FILE: 02 - Good Times.flac
Size: 43857322 Hash: 46E4FF46F2CA6371CF7A8B53959D6064 Accuracy: -m0
Conclusion: CDDA 100%
Signature: 670B7AB266ED8C45C47460DFCADBBE16E4E41668
FILE: 01 - Life.flac
Size: 39417198 Hash: BBE7B78E3EFE369CC55BF4422BE0BEF4 Accuracy: -m0
Conclusion: CDDA 100%
Signature: 999DB75AFCF8ED31787983BC0F39D726895D0670

Год выпуска: 2014
Продолжительность: 01:24:21
Треклист:

01. Level Out (08:55)
02. Magic Eye (Remix) (10:02)
03. Sol (Remix) (07:31)
04. Spiritual Ocean (06:49)
05. Levitate (11:23)
06. Insum (Remix) (08:17)
07. Rain Geometry (Solar Fields Remix) (07:51)
08. Respiratory Rate (07:50)
09. The Sight Is White (07:27)
10. Third Time (T Version) (08:16)

-----------------------

DON'T MODIFY THIS FILE

-----------------------

PERFORMER: auCDtect Task Manager, ver. 1.6.0 RC1 build 1.6.0.1
Copyright (c) 2008-2010 y-soft. All rights reserved
http://y-soft.org

ANALYZER: auCDtect: CD records authenticity detector, version 0.8.2
Copyright (c) 2004 Oleg Berngardt. All rights reserved.
Copyright (c) 2004 Alexander Djourik. All rights reserved.

FILE: 10 - Third Time (T-Version).flac
Size: 51490807 Hash: 46FF32D08C428E9A2E1C469F13672E33 Accuracy: -m0
Conclusion: CDDA 100%
Signature: 29E25681E1479B200EFB8E7CD6DF531AC736A033
FILE: 09 - The Sight Is White.flac
Size: 44636887 Hash: CBEC2959B15B6BDF5966EE20EAB8C609 Accuracy: -m0
Conclusion: CDDA 99%
Signature: F0B4F25572FAB9D529D18630C8324069873F419D
FILE: 08 - Respiratory Rate.flac
Size: 41615884 Hash: BFE4513F9F5FF2B6A60E423D6ABC2016 Accuracy: -m0
Conclusion: CDDA 100%
Signature: 7244E2FE97C69C616650C7BC98918918E2B6F62C
FILE: 07 - H.U.V.A. Network - Rain Geometry (Solar Fields Remix).flac
Size: 45400622 Hash: 297127FABD75F76F4A470FE350752A50 Accuracy: -m0
Conclusion: CDDA 99%
Signature: 6D8038AE2235130D7A6C536814ED10E3D5B85028
FILE: 06 - Insum (Remix).flac
Size: 49335210 Hash: 58770044453E79E7E690BD542B2F4E40 Accuracy: -m0
Conclusion: CDDA 100%
Signature: 6A4D25C255609E382E1E34642AEF5CAC0A5E465D
FILE: 05 - Levitate.flac
Size: 74160945 Hash: B6C8ED1DCA54FCDF94FDC8EE64ED7D0A Accuracy: -m0
Conclusion: CDDA 100%
Signature: 8E9E9F8C7D984EE5036722928442B529A1E206C0
FILE: 04 - Spiritual Ocean.flac
Size: 38304490 Hash: 3149B422C3FFC98B354A66D0CAB2F74A Accuracy: -m0
Conclusion: CDDA 100%
Signature: B4B52606A733BBA8246536455B9F12C67E1574A3
FILE: 03 - Sol (Remix).flac
Size: 45994428 Hash: 5310DE266A974352FAF4D0AB160D31B5 Accuracy: -m0
Conclusion: CDDA 100%
Signature: 1381EFEDA0D057CE1BEAD06171506527BD47A41B
FILE: 02 - Magic Eye (Remix).flac
Size: 55994566 Hash: 7F5B80B546DE8B7D601204BEA7F21348 Accuracy: -m0
Conclusion: CDDA 100%
Signature: A64C45D00098C650E4263E7F1401AC103F1B2832
FILE: 01 - Level Out.flac
Size: 55319443 Hash: 054165346877EAF403D8B1E8A9B8FD14 Accuracy: -m0
Conclusion: CDDA 100%
Signature: 594AD8AB7F6731144951C37D4645EA1EE121467F

Год выпуска: 2014
Продолжительность: 01:17:51
Треклист:

01. Jeezlh (09:14)
02. Velvet Reptile (08:58)
03. Confusion Illusion (07:28)
04. Union Light (07:29)
05. Combinations (On/Off Edit) (05:12)
06. Fiat Lux (09:19)
07. Electric Fluid (06:51)
08. Times Are Good (Sometimes Remix) (08:06)
09. Compressed Universe (Edit) (06:51)
10. OnFlow (Edit) (08:23)

-----------------------

DON'T MODIFY THIS FILE

-----------------------

PERFORMER: auCDtect Task Manager, ver. 1.6.0 RC1 build 1.6.0.1
Copyright (c) 2008-2010 y-soft. All rights reserved
http://y-soft.org

ANALYZER: auCDtect: CD records authenticity detector, version 0.8.2
Copyright (c) 2004 Oleg Berngardt. All rights reserved.
Copyright (c) 2004 Alexander Djourik. All rights reserved.

FILE: 10 - OnFlow (Edit).flac
Size: 44799540 Hash: A2FD248BD344B2E5DFF63F2678AE1626 Accuracy: -m0
Conclusion: CDDA 100%
Signature: B55451700E42DB4D5D570104D6FB90BA98819441
FILE: 09 - Compressed Universe (Edit).flac
Size: 42223254 Hash: F5DF7D94F332D4BC49C8BC034CD96BB8 Accuracy: -m0
Conclusion: CDDA 100%
Signature: 12734DCB956220716334427DC1BEFFD3583C6F82
FILE: 08 - Times Are Good (Sometimes Remix).flac
Size: 48987757 Hash: 54690260B4B2E1C206D3961929F9F2C0 Accuracy: -m0
Conclusion: CDDA 100%
Signature: 2AAA5D21AB4DB76194ADBDD766D6B6ADE6EF778F
FILE: 07 - Electric Fluid.flac
Size: 41033848 Hash: 1C4969DE9EC97499C9F9F09DD6F99957 Accuracy: -m0
Conclusion: CDDA 100%
Signature: C3AC3FB37E2F8040CB43E523E6F31D48A4D231B3
FILE: 06 - Fiat Lux.flac
Size: 60529253 Hash: 0BF564451EBC06673293E9FA59A9E465 Accuracy: -m0
Conclusion: CDDA 100%
Signature: 8EA33166C044D6E97DC3EDB868DF9DE21A9C1504
FILE: 05 - Combinations (On-Off Edit).flac
Size: 27805398 Hash: 86014AF18FFE66598898354A8164A7F5 Accuracy: -m0
Conclusion: CDDA 100%
Signature: 9BC9BE4890D8543344A43B70C278F06AED047661
FILE: 04 - Union Light.flac
Size: 43416271 Hash: 60A6F02845DCC8306D04E7CE566C9DEB Accuracy: -m0
Conclusion: CDDA 100%
Signature: 72380F24E8699DB9ED8C7F1B9595AFF0A131FDDE
FILE: 03 - Confusion Illusion.flac
Size: 43292876 Hash: F8DA989B7F89D335BE092F1BD181E3EB Accuracy: -m0
Conclusion: CDDA 100%
Signature: D45B7453A49E66BA15BA3EB3CF8F9F938D8ABE1E
FILE: 02 - Velvet Reptile.flac
Size: 55800353 Hash: 2CA811BB0164FD794BD3B27CD85AE4B6 Accuracy: -m0
Conclusion: CDDA 100%
Signature: 9EDB4C23FCD09B4A5EEA387AC8EAFCDD4940F778
FILE: 01 - Jeezlh.flac
Size: 62988364 Hash: F6C4FC96408514E7EB534A7BE7920C3C Accuracy: -m0
Conclusion: CDDA 100%
Signature: EE691B59D5882AF4DF16BB0C93B49793BBE9F756

Год выпуска: 2014
Продолжительность: 00:17:03
Треклист:

01. Pulse (Original Mix) (09:09)
02. Pulse (Airwave Remix) (07:54)

-----------------------

DON'T MODIFY THIS FILE

-----------------------

PERFORMER: auCDtect Task Manager, ver. 1.6.0 RC1 build 1.6.0.1
Copyright (c) 2008-2010 y-soft. All rights reserved
http://y-soft.org

ANALYZER: auCDtect: CD records authenticity detector, version 0.8.2
Copyright (c) 2004 Oleg Berngardt. All rights reserved.
Copyright (c) 2004 Alexander Djourik. All rights reserved.

FILE: 02 - Pulse (Airwave Remix).flac
Size: 55677527 Hash: A0DAB87711BE650BCC348656E881B8F7 Accuracy: -m0
Conclusion: CDDA 99%
Signature: E6A515D8714CA40F574E1A2A89450840F2450BCC
FILE: 01 - Pulse (Original Mix).flac
Size: 60536777 Hash: 083D0376F1B572B8BEC4EA5D5B527230 Accuracy: -m0
Conclusion: MPEG 95%
Signature: 08915E40EFFE445CA147B5F24FC82D4392AD6238

Год выпуска: 2014
Продолжительность: 01:09:33
Треклист:

01. 6.7 (04:22)
02. Floating Channels (07:46)
03. Self Transforming Experience (First Movement) (03:47)
04. Blue Light... (04:07)
05. ...Red Vortex (04:46)
06. Echoing Spectrum (04:29)
07. Inherit Velocity (02:40)
08. Zero Rotation (07:07)
09. Overlapping Particles (05:27)
10. Self Transforming Experience (Second Movement) (07:05)
11. Zone 12 (04:31)
12. Nea 3 (02:47)
13. Outlined Surfaces (07:48)
14. Breathing Neutron Empire (02:51)

-----------------------

DON'T MODIFY THIS FILE

-----------------------

PERFORMER: auCDtect Task Manager, ver. 1.6.0 RC1 build 1.6.0.1
Copyright (c) 2008-2010 y-soft. All rights reserved
http://y-soft.org

ANALYZER: auCDtect: CD records authenticity detector, version 0.8.2
Copyright (c) 2004 Oleg Berngardt. All rights reserved.
Copyright (c) 2004 Alexander Djourik. All rights reserved.

FILE: 14 - Breathing Neutron Empire.flac
Size: 14844135 Hash: 0A5C40412F48EDFB976CCBEF338A862D Accuracy: -m0
Conclusion: CDDA 100%
Signature: 0D65E2B91514D25A9E602153C7BF5793A004615D
FILE: 13 - Outlined Surfaces.flac
Size: 42892345 Hash: 82F93BC92460EA490B400F58AFCA19C6 Accuracy: -m0
Conclusion: CDDA 99%
Signature: 1D7A3FF99D24260BC8C74644519E453BB8CD4788
FILE: 12 - Nea 3.flac
Size: 14831473 Hash: 9049064F7D7C19675708FC6245024AA2 Accuracy: -m0
Conclusion: CDDA 100%
Signature: D39B6D1538B663783A540AD5ABBB4A87FC930322
FILE: 11 - Zone 12.flac
Size: 29887837 Hash: 04BFE605F0B401FD94C3D8861159E93C Accuracy: -m0
Conclusion: CDDA 100%
Signature: 5E4C9461000A54CC800850B55B714B5B501F09F1
FILE: 10 - Self Transforming Experience (Second Movement).flac
Size: 48852816 Hash: 79BC32E59284914A8D8913198C272F55 Accuracy: -m0
Conclusion: CDDA 100%
Signature: CFED6207653FC97720C4B702A55CDAEEA0997579
FILE: 09 - Overlapping Particles.flac
Size: 37657331 Hash: 6D1853ECC572EF157977FCD8FFEBCF85 Accuracy: -m0
Conclusion: CDDA 100%
Signature: 5E99609C06CB987AD6E4CD4674672343AACD5EBC
FILE: 08 - Zero Rotation.flac
Size: 39327224 Hash: 5BDE48C62A3B6863DC11B8CB87BD3864 Accuracy: -m0
Conclusion: CDDA 100%
Signature: 172E2EAF0A14100C550F945FF3AEC76409F08D24
FILE: 07 - Inherit Velocity.flac
Size: 17498666 Hash: 672953206EA22A22C0209AEAB8DF015D Accuracy: -m0
Conclusion: CDDA 100%
Signature: B39ACB7F2DAE807C1F203E61D2E9A2235FA70E76
FILE: 06 - Echoing Spectrum.flac
Size: 28644654 Hash: 75D32C3FCF1C83DBCB2FEA46D4B689B5 Accuracy: -m0
Conclusion: CDDA 100%
Signature: DA794002B905E31F44B123CC591FE8CE3E932B83
FILE: 05 - ...Red Vortex.flac
Size: 33618354 Hash: 334CFC17CFAB7B60E6259E2974D59702 Accuracy: -m0
Conclusion: CDDA 100%
Signature: C5AB442967B9A370FC5734C94165E18D5B775D5B
FILE: 04 - Blue Light....flac
Size: 27924997 Hash: 29CEA9E9ED5808CC5A0A4A220E474A61 Accuracy: -m0
Conclusion: CDDA 100%
Signature: 8C82A894B28049EE636E42292EF1DA7E3CAFC593
FILE: 03 - Self Transforming Experience (First Movement).flac
Size: 22273061 Hash: 403C6BDD2463D75C2064F87B718B40D7 Accuracy: -m0
Conclusion: CDDA 100%
Signature: 89FECA9F47B3B139B8807353F2807ADBDE741166
FILE: 02 - Floating Channels.flac
Size: 55547605 Hash: 9EF374F6FFDC88FAD17FD66C6D752C49 Accuracy: -m0
Conclusion: CDDA 100%
Signature: 92475B34DA40B0F5AA525D38A19B14C7C918DCC9
FILE: 01 - 6.7.flac
Size: 25883338 Hash: 36E327CE502D7E9591E11A51F04A13CE Accuracy: -m0
Conclusion: CDDA 100%
Signature: AF8C48AEF4B641503F297651DA3A73822913ADA6

Год выпуска: 2016
Продолжительность: 05:12:52
Треклист:

01. Faith (03:29)
02. Release (15:40)
03. Birdman (01:18)
04. Downtown District (14:11)
05. Noah (01:53)
06. Back In The Game (18:18)
07. Icarus (02:30)
08. Plastic (02:00)
09. Savant (17:36)
10. Gridnodes (13:32)
11. Anchor District (14:15)
12. Dogen (01:54)
13. Benefactor (21:19)
14. Raid (01:02)
15. Flytrap (16:54)
16. Sanctuary (08:16)
17. Rebecca (01:20)
18. Vive Le Resistance (17:59)
19. Rezoning District (16:30)
20. Aurore (01:12)
21. Prisoner X (15:22)
22. Aline (01:35)
23. Kingdom (21:59)
24. Kruger (02:26)
25. Isabel (03:35)
26. Family Matters (17:46)
27. Tickets Please (11:04)
28. The View District (15:07)
29. Caitlyn (01:35)
30. The Shard (24:35)
31. Gabriel (02:46)
32. Catalyst (03:54)

-----------------------

DON'T MODIFY THIS FILE

-----------------------

PERFORMER: auCDtect Task Manager, ver. 1.6.0 RC1 build 1.6.0.1
Copyright (c) 2008-2010 y-soft. All rights reserved
http://y-soft.org

ANALYZER: auCDtect: CD records authenticity detector, version 0.8.2
Copyright (c) 2004 Oleg Berngardt. All rights reserved.
Copyright (c) 2004 Alexander Djourik. All rights reserved.

FILE: 32. Catalyst.flac
Size: 22796914 Hash: 292F9AEAE6B96C7784A56C6214BE3A2B Accuracy: -m0
Conclusion: CDDA 100%
Signature: AE67A46351C99A0A64D71244EE2E3989518A0EF5
FILE: 31. Gabriel.flac
Size: 11656237 Hash: 21896843B3BE2C28BF6F13ACE928F6BE Accuracy: -m0
Conclusion: CDDA 100%
Signature: 9FA24D2D268D551703795E1E0BEAD7B8E26DF36E
FILE: 30. The Shard.flac
Size: 140003672 Hash: 4618CCF9F490D84753540EAE0BEEB181 Accuracy: -m0
Conclusion: CDDA 100%
Signature: 624EC79D01163F62C2A5B8DB34BCA34E72DC87BD
FILE: 29. Caitlyn.flac
Size: 8164422 Hash: 48357234899799B78E84F6D463097200 Accuracy: -m0
Conclusion: CDDA 100%
Signature: AA835660A9A84E4139491740106402C9035AA697
FILE: 28. The View District.flac
Size: 84782514 Hash: BC614286B57C7417639EF91C607A35FB Accuracy: -m0
Conclusion: CDDA 99%
Signature: 9D0EEE5C72453943ABC6A547AE14726660E6B6C0
FILE: 27. Tickets Please.flac
Size: 55336669 Hash: 39BEF37DFB61CEBC4280B3F169B50196 Accuracy: -m0
Conclusion: MPEG 95%
Signature: 86B03238DB4CE94FFDC877F593112736D32CCCA3
FILE: 26. Family Matters.flac
Size: 93805834 Hash: 908CF9233A60F6DB0EC73273BEC58FD7 Accuracy: -m0
Conclusion: CDDA 100%
Signature: 16961412645712FDD177DF470A78E5F07BDE159D
FILE: 25. Isabel.flac
Size: 11028997 Hash: 9424125C484D30F523A545DE1373E4FF Accuracy: -m0
Conclusion: MPEG 89%
Signature: 912B1D58BBF5C299642349ED1A684F72D8230BCD
FILE: 24. Kruger.flac
Size: 10372900 Hash: FD547BFDC3BBD96AC8BC81EB713CB865 Accuracy: -m0
Conclusion: ???
Signature: BB6F50D2502148531F53995B4B17C126E6FEFBE0
FILE: 23. Kingdom.flac
Size: 119241751 Hash: 7A1CC4858C6126605B0781A36CD8F305 Accuracy: -m0
Conclusion: CDDA 100%
Signature: 9F3A5ADB03CBE406B5EE864CB1656A5608DB46A0
FILE: 22. Aline.flac
Size: 6729168 Hash: 9558BEDFEF436DA238CAADC6C766863A Accuracy: -m0
Conclusion: ???
Signature: FA33715B52177460B5AEAE59C0D9C8A4F5A69951
FILE: 21. Prisoner X.flac
Size: 88545389 Hash: 39A7B26AFD9165A970CC53C49A2C4A82 Accuracy: -m0
Conclusion: CDDA 100%
Signature: C85C63156B1F34B620FAD8B776BFB0F51720CC3E
FILE: 20. Aurore.flac
Size: 4067971 Hash: 9B5168CAF1E4C3B30E3FC4FB101DCC5C Accuracy: -m0
Conclusion: CDDA 54%
Signature: C8B39867B3133B84492B5556877E236E438C8E64
FILE: 19. Rezoning District.flac
Size: 93188445 Hash: 4F436FC05C0145B1A2281AA9B61CDEED Accuracy: -m0
Conclusion: CDDA 100%
Signature: C8B885A297CFC5A036F83773D5591150DCBAF1A8
FILE: 18. Vive Le Resistance.flac
Size: 92096794 Hash: D8B0B3CF8A500331305C8683D4C64BEB Accuracy: -m0
Conclusion: CDDA 100%
Signature: F03559ECA9F1641E2EAE74C810A44C9F6590C80F
FILE: 17. Rebecca.flac
Size: 5760825 Hash: 5AA465F974F4BFD8CFDBD96A0D18B797 Accuracy: -m0
Conclusion: CDDA 100%
Signature: FBC21388742836402D7525A1BAECA6AD3E8687DE
FILE: 16. Sanctuary.flac
Size: 34339616 Hash: 23C42E2F9A87FEDEF2973C3F86CE5EF1 Accuracy: -m0
Conclusion: CDDA 100%
Signature: 7E4A3A87D837397CD3D391556A0962447513546F
FILE: 15. Flytrap.flac
Size: 90661246 Hash: EFF6FB0D46A6CBF45BDE7C2E6C95F1E3 Accuracy: -m0
Conclusion: CDDA 100%
Signature: 5F3918306EEF8EB129A21B2A415819DB6CD4CA69
FILE: 14. Raid.flac
Size: 6450387 Hash: E99813141DBF9A07916EEF43A7F31CB4 Accuracy: -m0
Conclusion: CDDA 100%
Signature: A78D41FB4FDA188C8341AD76F000AC02E3ED5D7B
FILE: 13. Benefactor.flac
Size: 111945210 Hash: 3DEA1BB945842EA8282832E21319A069 Accuracy: -m0
Conclusion: CDDA 99%
Signature: E5D8B2F559B8CF0344A67D176CEADDB9BDFFFAAC
FILE: 12. Dogen.flac
Size: 4726648 Hash: 5B6E170C393C4692B27A6B8DBF418620 Accuracy: -m0
Conclusion: MPEG 100%
Signature: 42E6006BF1C5897DB431E6CAC3B6A46494DC0001
FILE: 11. Anchor District.flac
Size: 89209492 Hash: D9AA4A47132C06A5B84C4883BFA5FD4B Accuracy: -m0
Conclusion: CDDA 100%
Signature: 583039A23B629993BFC181FC91D0F632C9C195D8
FILE: 10. Gridnodes.flac
Size: 76198387 Hash: 8B6BA248A8035EFB3CFAB3302EDB4101 Accuracy: -m0
Conclusion: CDDA 100%
Signature: 31862F9D40CFD2B65C7B3296334A2AB2BAA7BE99
FILE: 09. Savant.flac
Size: 98664184 Hash: 6FF5C55E637E3C40DE55A35EC528B75E Accuracy: -m0
Conclusion: CDDA 100%
Signature: C799D3626ED21EDF2F1F07A5F767E4B0C57410A7
FILE: 08. Plastic.flac
Size: 10560071 Hash: 26FDF17CEF07B77E70AFFA5538D2B230 Accuracy: -m0
Conclusion: CDDA 100%
Signature: FF72E851AEE4C13F523DCDECCDE8BE1851CB4B2B
FILE: 07. Icarus.flac
Size: 12716110 Hash: 16F75378A5AF2AA0023895E799A0772C Accuracy: -m0
Conclusion: CDDA 94%
Signature: B605C426E8B39110BA9D473004E7359D818F6495
FILE: 06. Back in the Game.flac
Size: 96132035 Hash: 491BC8D55BA9301949BAB75D3476BBAC Accuracy: -m0
Conclusion: CDDA 100%
Signature: A23A6FE4E2EAA7B28ED8DC97F6FADCC4333D54B1
FILE: 05. Noah.flac
Size: 6340162 Hash: 5C9CA51E568D3DA903120D128B395D04 Accuracy: -m0
Conclusion: CDDA 100%
Signature: E55580EF50BC4D07DB1A9E215363D595B837391A
FILE: 04. Downtown District.flac
Size: 79928680 Hash: 5A3DE7FB4F2343E26E51DE98D5CFDC22 Accuracy: -m0
Conclusion: CDDA 100%
Signature: 44FB8FF089219E27833AA298652DBBA2587A6B62
FILE: 03. Birdman.flac
Size: 5596367 Hash: 76DC5FF94300984320DC1010B4D92426 Accuracy: -m0
Conclusion: CDDA 43%
Signature: FAC1A8A7EE3CE098B3FD7661CB6ECB0C5D8445B7
FILE: 02. Release.flac
Size: 80336519 Hash: 884487389A9B93C3FA1FDDAE8209BC89 Accuracy: -m0
Conclusion: CDDA 100%
Signature: D31E0E03B9E04F3449DD6CBE935E28E89A7665A0
FILE: 01. Faith.flac
Size: 12009179 Hash: 8635C4D4C68A82576917961380492FA2 Accuracy: -m0
Conclusion: CDDA 99%
Signature: D550C70341AEC738B93F3231C198DC61A208416D

Время раздачи: 12/7
[NNMClub.to]_Solar Fields FLAC.torrent
 Торрент: Золотая раздача  Зарегистрирован
 
Примагнититься
Free Leech
Зарегистрируйтесь и скачайте торрент!
107 KB
 Зарегистрирован:   22 Окт 2016 19:01:28
 Размер:   14 GB  (
 Рейтинг:   4,9 (Голосов: 17)
 Поблагодарили:   52
 Проверка:   Оформление проверено модератором 22 Окт 2016 19:05:41
Как cкачать  ·  Как раздать  ·  Правильно оформить  ·  Поднять ратио!  
hypercatt
Стаж: 1 год 4 мес.
Сообщений: 123
Ratio: 60,585
100%
Ё-маё!!! Сколько я искал "Солнечных" в лосслесс... Вот это набор. Друг, ну ты... Просто шикарно..
alex_benny
 
Стаж: 7 лет
Сообщений: 109
Ratio: 3,764
Поблагодарили: 1
2.93%
ЩЩИИИИКааарно!!!!!!!!!! Спаисибо! Помогу с раздачей!
Показать сообщения:   
Начать новую тему   Ответить на тему    Торрент-трекер NNM-Club -> Electronic -> Easy listening (Lossless) Часовой пояс: GMT + 3
Страница 1 из 1