Интеллигентный торрент-трекер
canvas not supported
Нас вместе: 4 103 344

Антропоид / Anthropoid (2016) BDRemux [H.264/1080p] [EN / EN, Fr, Sp Sub]


 
 
RSS
Начать новую тему   Ответить на тему    Торрент-трекер NNM-Club -> Зарубежное кино -> Фильмы в оригинале (HD)
Автор Сообщение
smaster67 ®
Модератор Видео
Покровитель талантов Uploader 300+
Стаж: 7 лет 5 мес.
Сообщений: 6257
Ratio: 180,063
Поблагодарили: 173730
100%
Антропоид / Anthropoid (2016) BDRemux [H.264/1080p] [EN / EN, Fr, Sp Sub]

Производство: Чехия, Великобритания, Франция
Жанр: триллер, военный, биография, история

Режиссер: Шон Эллис
Актеры: Джейми Дорнан, Киллиан Мёрфи, Брайан Каспе, Карел Гержманек, Хана Фрейкова, Шон Махон, Жан Хайек, Марчин Дорочиньский, Тоби Джонс, Алёна Михулова, Билл Милнер

Описание:
Картина рассказывает о ликвидации в годы Второй мировой войны одного из самых зловещих нацистских преступников, начальника Главного управления имперской безопасности третьего рейха Рейнхарда Гейдриха, который при жизни получил прозвище «Пражский мясник».



Продолжительность: 02:00:52
Качество видео: BDRemux
Перевод: Отсутствует
Язык озвучки: Английский
Язык субтитров: английский, испанский, французский
Вид субтитров: Вшитые

Видео: AVC, 1920x1080 (16:9), 34468 kbps, 23,976 fps, 0,693 bpp
Аудио: английский / DTS-HD / 5.1 / 48 kHz / 3413 kbps / 24 bit (Core: 5.1 / 48 kHz / 1509 kbps / 24 bit)
Код: выделить все
General
Anthropoid.2016.BluRay.1080p.DTS-HD.MA.5.1.AVC.REMUX-FraMeSToR\Anthropoid.2016.BluRay.1080p.DTS-HD.MA.5.1.AVC.REMUX-FraMeSToR.mkv
Format                                   : Matroska
Format version                           : Version 4 / Version 2
File size                                : 32.0 GiB
Duration                                 : 2 h 0 min
Overall bit rate mode                    : Variable
Overall bit rate                         : 38.0 Mb/s
Movie name                               : Anthropoid
Encoded date                             : UTC 2016-10-22 11:01:09
Writing application                      : mkvmerge v9.5.0 ('Quiet Fire') 64bit
Writing library                          : libebml v1.3.4 + libmatroska v1.4.5

Video
ID                                       : 1
Format                                   : AVC
Format/Info                              : Advanced Video Codec
Format profile                           : High@L4.1
Format settings, CABAC                   : Yes
Format settings, ReFrames                : 4 frames
Codec ID                                 : V_MPEG4/ISO/AVC
Duration                                 : 2 h 0 min
Bit rate mode                            : Variable
Bit rate                                 : 34.5 Mb/s
Maximum bit rate                         : 37.0 Mb/s
Width                                    : 1 920 pixels
Height                                   : 1 080 pixels
Display aspect ratio                     : 16:9
Frame rate mode                          : Constant
Frame rate                               : 23.976 (24000/1001) FPS
Color space                              : YUV
Chroma subsampling                       : 4:2:0
Bit depth                                : 8 bits
Scan type                                : Progressive
Bits/(Pixel*Frame)                       : 0.693
Stream size                              : 29.1 GiB (91%)
Default                                  : Yes
Forced                                   : No

Audio
ID                                       : 2
Format                                   : DTS
Format/Info                              : Digital Theater Systems
Format profile                           : MA / Core
Mode                                     : 16
Format settings, Endianness              : Big
Codec ID                                 : A_DTS
Duration                                 : 2 h 0 min
Bit rate mode                            : Variable / Constant
Bit rate                                 : 3 414 kb/s / 1 509 kb/s
Channel(s)                               : 6 channels
Channel positions                        : Front: L C R, Side: L R, LFE
Sampling rate                            : 48.0 kHz
Frame rate                               : 93.750 FPS (512 spf)
Bit depth                                : 24 bits
Compression mode                         : Lossless / Lossy
Stream size                              : 2.88 GiB (9%)
Title                                    : DTS-HD MA 5.1
Language                                 : English
Default                                  : Yes
Forced                                   : No

Text #1
ID                                       : 3
Format                                   : PGS
Codec ID                                 : S_HDMV/PGS
Codec ID/Info                            : Picture based subtitle format used on BDs/HD-DVDs
Duration                                 : 1 h 48 min
Bit rate                                 : 27.9 kb/s
Count of elements                        : 2298
Stream size                              : 21.6 MiB (0%)
Title                                    : English (SDH)
Language                                 : English
Default                                  : Yes
Forced                                   : No

Text #2
ID                                       : 4
Format                                   : PGS
Codec ID                                 : S_HDMV/PGS
Codec ID/Info                            : Picture based subtitle format used on BDs/HD-DVDs
Duration                                 : 1 h 59 min
Bit rate                                 : 20.5 kb/s
Count of elements                        : 1780
Stream size                              : 17.6 MiB (0%)
Title                                    : Spanish (Latin American)
Language                                 : Spanish
Default                                  : No
Forced                                   : No

Text #3
ID                                       : 5
Format                                   : PGS
Codec ID                                 : S_HDMV/PGS
Codec ID/Info                            : Picture based subtitle format used on BDs/HD-DVDs
Duration                                 : 1 h 59 min
Bit rate                                 : 21.0 kb/s
Count of elements                        : 1916
Stream size                              : 18.0 MiB (0%)
Title                                    : French
Language                                 : French
Default                                  : No
Forced                                   : No

Menu
00:00:00.000                             : en:Chapter 1
00:08:32.053                             : en:Chapter 2
00:12:57.860                             : en:Chapter 3
00:18:48.293                             : en:Chapter 4
00:24:35.599                             : en:Chapter 5
00:28:54.107                             : en:Chapter 6
00:34:02.915                             : en:Chapter 7
00:39:41.754                             : en:Chapter 8
00:48:59.102                             : en:Chapter 9
00:56:04.986                             : en:Chapter 10
00:59:55.842                             : en:Chapter 11
01:06:37.535                             : en:Chapter 12
01:12:14.997                             : en:Chapter 13
01:17:09.041                             : en:Chapter 14
01:23:09.693                             : en:Chapter 15
01:28:13.121                             : en:Chapter 16
01:32:06.395                             : en:Chapter 17
01:39:01.769                             : en:Chapter 18
01:44:39.481                             : en:Chapter 19
01:54:37.829                             : en:Chapter 20

Скриншоты:



Время раздачи: с 13:00 до 23:00
[NNMClub.to]_Anthropoid.2016.BluRay.1080p.DTS-HD.MA.5.1.AVC.REMUX-FraMeSToR.mkv.torrent
 Торрент: Золотая раздача  Зарегистрирован
 
Примагнититься
Free Leech
Зарегистрируйтесь и скачайте торрент!
160 KB
 Зарегистрирован:   22 Окт 2016 19:19:46
 Размер:   32 GB  (
 Рейтинг:    (Голосов: 8)
 Поблагодарили:   49
 Проверка:   Оформление проверено модератором 22 Окт 2016 19:20:35
Как cкачать  ·  Как раздать  ·  Правильно оформить  ·  Поднять ратио!  
Alexe​yg201​2​
Стаж: 4 года 2 мес.
Сообщений: 3
Ratio: 9,033
3.03%
Круто! Где можно взять русские субтитры?
Показать сообщения:   
Начать новую тему   Ответить на тему    Торрент-трекер NNM-Club -> Зарубежное кино -> Фильмы в оригинале (HD) Часовой пояс: GMT + 3
Страница 1 из 1