Интеллигентный торрент-трекер
canvas not supported
Нас вместе: 4 116 057

Абсолютная власть / Imperium (2016) BDRemux [H.264/1080p] [EN / EN, Sp Sub]


 
 
RSS
Начать новую тему   Ответить на тему    Торрент-трекер NNM-Club -> Зарубежное кино -> Фильмы в оригинале (HD)
Автор Сообщение
smaster67 ®
Модератор Видео
Покровитель талантов Uploader 300+
Стаж: 7 лет 5 мес.
Сообщений: 6278
Ratio: 181,058
Поблагодарили: 174732
100%
Абсолютная власть / Imperium (2016) BDRemux [H.264/1080p] [EN / EN, Sp Sub]

Производство: США
Жанр: триллер, драма, криминал

Режиссер: Даниэль Рагуссис
Актеры: Дэниэл Рэдклифф, Тони Коллетт, Трэйси Леттс, Сэм Трэммелл, Нестор Карбонелл, Крис Салливан, Сет Нумрик, Павел Шайда, Девин Друид, Берн Горман, Адам Мейер, Роджер Йоусон

Описание:
Агент ФБР под прикрытием внедряется в банду нео-нацистов для предотвращения теракта. Каково это - жить каждый день в потоке насилия и жестокости, отстаивать свое право кулаками, выбрить череп и закрыть душу? Что такое нео-нацизм -это не только хулиганы и скинхеды, но и благополучные господа в дорогих костюмах, готовые уничтожить город ради идеи.



Продолжительность: 01:48:36
Качество видео: BDRemux
Перевод: Отсутствует
Язык озвучки: Английский
Язык субтитров: английский, испанский
Вид субтитров: Вшитые

Видео: AVC, 1920x1080 (16:9), 28906 kbps, 23,976 fps, 0,581 bpp
Аудио: английский / DTS-HD / 5.1 / 48 kHz / 3534 kbps / 24 bit (Core: 5.1 / 48 kHz / 1509 kbps / 24 bit)
Код: выделить все
General
Unique ID                               Imperium.2016.REMUX.1080p.BluRay.AVC.DTS-HD.MA5.1-iFT\Imperium.2016.REMUX.1080p.BluRay.AVC.DTS-HD.MA5.1-iFT.mkv
Format                                   : Matroska
Format version                           : Version 4 / Version 2
File size                                : 24.7 GiB
Duration                                 : 1 h 48 min
Overall bit rate mode                    : Variable
Overall bit rate                         : 32.5 Mb/s
Encoded date                             : UTC 2016-10-23 04:58:36
Writing application                      : mkvmerge v8.9.0 ('Father Daughter') 64bit
Writing library                          : libebml v1.3.3 + libmatroska v1.4.4

Video
ID                                       : 1
Format                                   : AVC
Format/Info                              : Advanced Video Codec
Format profile                           : High@L4.1
Format settings, CABAC                   : Yes
Format settings, ReFrames                : 4 frames
Codec ID                                 : V_MPEG4/ISO/AVC
Duration                                 : 1 h 48 min
Bit rate mode                            : Variable
Bit rate                                 : 28.9 Mb/s
Maximum bit rate                         : 37.0 Mb/s
Width                                    : 1 920 pixels
Height                                   : 1 080 pixels
Display aspect ratio                     : 16:9
Frame rate mode                          : Constant
Frame rate                               : 23.976 (24000/1001) FPS
Color space                              : YUV
Chroma subsampling                       : 4:2:0
Bit depth                                : 8 bits
Scan type                                : Progressive
Bits/(Pixel*Frame)                       : 0.581
Stream size                              : 21.9 GiB (89%)
Default                                  : Yes
Forced                                   : No

Audio
ID                                       : 2
Format                                   : DTS
Format/Info                              : Digital Theater Systems
Format profile                           : MA / Core
Mode                                     : 16
Format settings, Endianness              : Big
Codec ID                                 : A_DTS
Duration                                 : 1 h 48 min
Bit rate mode                            : Variable / Constant
Bit rate                                 : 3 535 kb/s / 1 509 kb/s
Channel(s)                               : 6 channels
Channel positions                        : Front: L C R, Side: L R, LFE
Sampling rate                            : 48.0 kHz
Frame rate                               : 93.750 FPS (512 spf)
Bit depth                                : 24 bits
Compression mode                         : Lossless / Lossy
Stream size                              : 2.68 GiB (11%)
Title                                    : English
Language                                 : English
Default                                  : Yes
Forced                                   : No

Text #1
ID                                       : 3
Format                                   : PGS
Muxing mode                              : zlib
Codec ID                                 : S_HDMV/PGS
Codec ID/Info                            : Picture based subtitle format used on BDs/HD-DVDs
Duration                                 : 1 h 39 min
Bit rate                                 : 21.7 kb/s
Count of elements                        : 3120
Stream size                              : 15.5 MiB (0%)
Title                                    : English-PGS
Language                                 : English
Default                                  : Yes
Forced                                   : No

Text #2
ID                                       : 4
Format                                   : PGS
Muxing mode                              : zlib
Codec ID                                 : S_HDMV/PGS
Codec ID/Info                            : Picture based subtitle format used on BDs/HD-DVDs
Duration                                 : 1 h 39 min
Bit rate                                 : 22.5 kb/s
Count of elements                        : 3228
Stream size                              : 16.1 MiB (0%)
Title                                    : English-SDH
Language                                 : English
Default                                  : No
Forced                                   : No

Text #3
ID                                       : 5
Format                                   : PGS
Muxing mode                              : zlib
Codec ID                                 : S_HDMV/PGS
Codec ID/Info                            : Picture based subtitle format used on BDs/HD-DVDs
Duration                                 : 1 h 40 min
Bit rate                                 : 22.1 kb/s
Count of elements                        : 3180
Stream size                              : 16.0 MiB (0%)
Title                                    : Spanish-PGS
Language                                 : Spanish
Default                                  : No
Forced                                   : No

Menu
00:00:00.000                             : en:00:00:00.000
00:07:07.260                             : en:00:07:07.260
00:14:49.680                             : en:00:14:49.680
00:21:11.645                             : en:00:21:11.645
00:27:08.836                             : en:00:27:08.836
00:33:24.002                             : en:00:33:24.002
00:39:43.256                             : en:00:39:43.256
00:46:01.008                             : en:00:46:01.008
00:51:49.565                             : en:00:51:49.565
00:57:56.640                             : en:00:57:56.640
01:05:00.271                             : en:01:05:00.271
01:11:59.899                             : en:01:11:59.899
01:19:28.222                             : en:01:19:28.222
01:26:43.573                             : en:01:26:43.573
01:30:29.799                             : en:01:30:29.799
01:38:49.590                             : en:01:38:49.590

Скриншоты:



Время раздачи: с 13:00 до 23:00
[NNMClub.to]_Imperium.2016.REMUX.1080p.BluRay.AVC.DTS-HD.MA5.1-iFT.mkv.torrent
 Торрент: Золотая раздача  Зарегистрирован
 
Примагнититься

Зарегистрируйтесь и скачайте торрент!
124 KB
 Зарегистрирован:   23 Окт 2016 14:27:42
 Размер:   24,7 GB  (
 Рейтинг:    (Голосов: 6)
 Поблагодарили:   39
 Проверка:   Оформление проверено модератором 23 Окт 2016 14:28:40
Как cкачать  ·  Как раздать  ·  Правильно оформить  ·  Поднять ратио!  
tigraTT
Стаж: 3 года
Сообщений: 95
Ratio: 1,509
54.77%
Это чтож получается, в США есть официально последователи Гитлера?
Namor88
Стаж: 4 года 1 мес.
Сообщений: 65
Ratio: 2,33
16.87%
tigraTT писал(а): Перейти к сообщению
Это чтож получается, в США есть официально последователи Гитлера?

Доброе утро!
ximixi
Стаж: 8 лет 6 мес.
Сообщений: 47
Ratio: 3,312
0%
"Гарри Поттер и загадка белой простыни с двумя дырками", хе-хе. :лол:
timbe​rlack​e​
Стаж: 9 лет 5 мес.
Сообщений: 577
Ratio: 12,137
3.05%
Скучный фильм, под конец даже уснул, пришлось отмотать назад двадцать минут, чтобы узнать чем вся эта тягомотина закончилась.
Показать сообщения:   
Начать новую тему   Ответить на тему    Торрент-трекер NNM-Club -> Зарубежное кино -> Фильмы в оригинале (HD) Часовой пояс: GMT + 3
Страница 1 из 1