Интеллигентный торрент-трекер
canvas not supported
Нас вместе: 4 118 580

Мистер Черч / Mr. Church (2016) BDRemux [H.264/1080p] [EN / EN, Sp Sub]


 
 
RSS
Начать новую тему   Ответить на тему    Торрент-трекер NNM-Club -> Зарубежное кино -> Фильмы в оригинале (HD)
Автор Сообщение
smaster67 ®
Модератор Видео
Покровитель талантов Uploader 300+
Стаж: 7 лет 5 мес.
Сообщений: 6280
Ratio: 181,223
Поблагодарили: 174859
100%
Мистер Черч / Mr. Church (2016) BDRemux [H.264/1080p] [EN / EN, Sp Sub]

Производство: США
Жанр: драма

Режиссер: Брюс Бересфорд
Актеры: Эдди Мёрфи, Бритт Робертсон, Наташа МакЭлхоун, Завьер Сэмюэл, Люси Фрай, Кристиан Мэдсен, МакКенна Грейс, Натали Кофлин, Мэдисон Вульф, Линкольн Мелчер, Кэтлин МакМартин, Сара Ширер

Описание:
Картина рассказывает о дружбе и почти семейных отношениях между двумя белыми женщинами, матерью и дочерью, и их чернокожим поваром по имени мистер Чёрч.



Продолжительность: 01:45:21
Качество видео: BDRemux
Перевод: Отсутствует
Язык озвучки: Английский
Язык субтитров: английский, испанский
Вид субтитров: Вшитые

Видео: AVC, 1920x1080 (16:9), 19998 kbps, 23,976 fps, 0,402 bpp
Аудио: английский / DTS-HD / 5.1 / 48 kHz / 3416 kbps / 24 bit (Core: 5.1 / 48 kHz / 1509 kbps / 24 bit)
Код: выделить все
General
Unique ID                               Mr.Church.2016.REMUX.1080p.BluRay.AVC.DTS-HD.MA5.1-iFT\Mr.Church.2016.REMUX.1080p.BluRay.AVC.DTS-HD.MA5.1-iFT.mkv
Format                                   : Matroska
Format version                           : Version 4 / Version 2
File size                                : 17.3 GiB
Duration                                 : 1 h 45 min
Overall bit rate mode                    : Variable
Overall bit rate                         : 23.4 Mb/s
Encoded date                             : UTC 2016-10-24 17:31:42
Writing application                      : mkvmerge v8.9.0 ('Father Daughter') 64bit
Writing library                          : libebml v1.3.3 + libmatroska v1.4.4

Video
ID                                       : 1
Format                                   : AVC
Format/Info                              : Advanced Video Codec
Format profile                           : High@L4.1
Format settings, CABAC                   : Yes
Format settings, ReFrames                : 4 frames
Codec ID                                 : V_MPEG4/ISO/AVC
Duration                                 : 1 h 45 min
Bit rate mode                            : Variable
Bit rate                                 : 20.0 Mb/s
Maximum bit rate                         : 35.0 Mb/s
Width                                    : 1 920 pixels
Height                                   : 1 080 pixels
Display aspect ratio                     : 16:9
Frame rate mode                          : Constant
Frame rate                               : 23.976 (24000/1001) FPS
Standard                                 : NTSC
Color space                              : YUV
Chroma subsampling                       : 4:2:0
Bit depth                                : 8 bits
Scan type                                : Progressive
Bits/(Pixel*Frame)                       : 0.402
Stream size                              : 14.7 GiB (85%)
Title                                    : English
Language                                 : English
Default                                  : Yes
Forced                                   : No
Color range                              : Limited
Color primaries                          : BT.709
Transfer characteristics                 : BT.709
Matrix coefficients                      : BT.709

Audio
ID                                       : 2
Format                                   : DTS
Format/Info                              : Digital Theater Systems
Format profile                           : MA / Core
Mode                                     : 16
Format settings, Endianness              : Big
Codec ID                                 : A_DTS
Duration                                 : 1 h 45 min
Bit rate mode                            : Variable / Constant
Bit rate                                 : 3 417 kb/s / 1 509 kb/s
Channel(s)                               : 6 channels
Channel positions                        : Front: L C R, Side: L R, LFE
Sampling rate                            : 48.0 kHz
Frame rate                               : 93.750 FPS (512 spf)
Bit depth                                : 24 bits
Compression mode                         : Lossless / Lossy
Stream size                              : 2.51 GiB (15%)
Title                                    : English
Language                                 : English
Default                                  : Yes
Forced                                   : No

Text #1
ID                                       : 3
Format                                   : PGS
Muxing mode                              : zlib
Codec ID                                 : S_HDMV/PGS
Codec ID/Info                            : Picture based subtitle format used on BDs/HD-DVDs
Duration                                 : 1 h 36 min
Bit rate                                 : 8 538 b/s
Count of elements                        : 2936
Stream size                              : 5.92 MiB (0%)
Title                                    : English-PGS
Language                                 : English
Default                                  : Yes
Forced                                   : No

Text #2
ID                                       : 4
Format                                   : PGS
Muxing mode                              : zlib
Codec ID                                 : S_HDMV/PGS
Codec ID/Info                            : Picture based subtitle format used on BDs/HD-DVDs
Duration                                 : 1 h 39 min
Bit rate                                 : 9 541 b/s
Count of elements                        : 3422
Stream size                              : 6.80 MiB (0%)
Title                                    : English-SDH
Language                                 : English
Default                                  : No
Forced                                   : No

Text #3
ID                                       : 5
Format                                   : PGS
Muxing mode                              : zlib
Codec ID                                 : S_HDMV/PGS
Codec ID/Info                            : Picture based subtitle format used on BDs/HD-DVDs
Duration                                 : 1 h 37 min
Bit rate                                 : 7 990 b/s
Count of elements                        : 2734
Stream size                              : 5.55 MiB (0%)
Title                                    : Spanish-PGS
Language                                 : Spanish
Default                                  : No
Forced                                   : No

Menu
00:00:00.000                             : en:00:00:00.000
00:06:53.079                             : en:00:06:53.079
00:14:00.757                             : en:00:14:00.757
00:19:03.476                             : en:00:19:03.476
00:25:40.581                             : en:00:25:40.581
00:32:06.925                             : en:00:32:06.925
00:39:27.407                             : en:00:39:27.407
00:45:19.467                             : en:00:45:19.467
00:52:04.872                             : en:00:52:04.872
00:58:31.675                             : en:00:58:31.675
01:05:30.135                             : en:01:05:30.135
01:12:44.944                             : en:01:12:44.944
01:19:32.935                             : en:01:19:32.935
01:24:59.678                             : en:01:24:59.678
01:31:08.296                             : en:01:31:08.296
01:38:25.108                             : en:01:38:25.108

Скриншоты:



Все одноименные релизы в Клубе

Время раздачи: с 13:00 до 23:00
[NNMClub.to]_Mr.Church.2016.REMUX.1080p.BluRay.AVC.DTS-HD.MA5.1-iFT.mkv.torrent
 Торрент: Золотая раздача  Зарегистрирован
 
Примагнититься
Free Leech
Зарегистрируйтесь и скачайте торрент!
86,5 KB
 Зарегистрирован:   24 Окт 2016 23:11:46
 Размер:   17,3 GB  (
 Рейтинг:    (Голосов: 8)
 Поблагодарили:   50
 Проверка:   Оформление проверено модератором 24 Окт 2016 23:13:10
Как cкачать  ·  Как раздать  ·  Правильно оформить  ·  Поднять ратио!  


Последний раз редактировалось: smaster67 (25 Окт 2016 14:11:42), всего редактировалось 1 раз
vkat
Стаж: 6 лет
Сообщений: 2
Ratio: 13,129
26.44%
Один из лучших фильмов из драм за последнее время.
builderoff
Стаж: 3 года 10 мес.
Сообщений: 2
Ratio: 3,797
0%
В описании очень ёмко дан обзор фильма. По сути к написанному добавить нечего. По форме и содержанию фильм за рамки сказанного не выходит.... Ну разве что посмотреть на старину Мёрфи, на фоне совершенно идиотского сценария.
idreamless
Стаж: 6 лет 2 мес.
Сообщений: 151
Ratio: 23,853
Раздал: 3,723 TB
91.52%
russia.gif
Фильм очень хорош. Не могу понять только одного. Почему он до сих пор не появился на трекерах с приличной русской звуковой дорожкой? Полгода уже прошло... даже 7 месяцев. С отвратительной дорогой - пожалуйста.

Всё понятно. В России он только 16 сентября в прокат вышел...

_________________
картинка: Pioneer BDP-450 - Panasonic 65VT60
звук: NAD T744 - Tannoy Sensys 5.0 - Energy ESW-C10
Показать сообщения:   
Начать новую тему   Ответить на тему    Торрент-трекер NNM-Club -> Зарубежное кино -> Фильмы в оригинале (HD) Часовой пояс: GMT + 3
Страница 1 из 1