Интеллигентный торрент-трекер
canvas not supported
Нас вместе: 4 100 727

Девять жизней / Nine Lives (2016) BDRemux [H.264/1080p] [EN / EN, Sp Sub]


 
 
RSS
Начать новую тему   Ответить на тему    Торрент-трекер NNM-Club -> Зарубежное кино -> Фильмы в оригинале (HD)
Автор Сообщение
smaster67 ®
Модератор Видео
Покровитель талантов Uploader 300+
Стаж: 7 лет 5 мес.
Сообщений: 6250
Ratio: 179,944
Поблагодарили: 173515
100%
Девять жизней / Nine Lives (2016) BDRemux [H.264/1080p] [EN / EN, Sp Sub]

Производство: Франция, Китай
Жанр: фэнтези, комедия, семейный

Режиссер: Барри Зонненфельд
Актеры: Кевин Спейси, Дженнифер Гарнер, Робби Амелл, Шерил Хайнс, Марк Консуэлос, Малина Вайсман, Кристофер Уокен, Талита Бейтман, Тедди Сирс, Джей Пэттерсон, Джевелл Блэкман, Серж Уд

Описание:
Том Бренд - миллиардер-трудоголик с чудинкой. Он с головой погружен в работу и немного выпал из семейной жизни - даже подарок дочери он покупает в последний момент. Ребекка мечтает о настоящем коте, и как бы Том ни презирал животных, он отправляется в зоомагазин, где выбирает самого роскошного кота по кличке Мистер Пушистые Штаны. В спешке на праздник дочери Том попадает в аварию, а очнувшись, обнаруживает себя в теле этого самого кота. Пока Том-человек отсыпается в больнице, Том-Пушистые Штаны вынужден на собственной шкуре испытать все прелести кошачьей жизни и вернуть любовь семьи, чтобы не остаться навсегда в роли питомца. Благо, жена и дочь принимают кота как родного. Но как заставить их разглядеть в Мистере Пушистые Штаны раскаявшегося отца семейства?



Продолжительность: 01:26:50
Качество видео: BDRemux
Перевод: Отсутствует
Язык озвучки: Английский
Язык субтитров: английский, испанский
Вид субтитров: Вшитые

Видео: AVC, 1920x1080 (16:9), 35594 kbps, 23,976 fps, 0,716 bpp
Аудио: английский / DTS-HD / 5.1 / 48 kHz / 3072 kbps / 24 bit (Core: 5.1 / 48 kHz / 1509 kbps / 24 bit)
Код: выделить все
General
Unique ID                                Nine.Lives.2016.BluRay.1080p.DTS-HD.MA.5.1.AVC.REMUX-FraMeSToR\Nine.Lives.2016.BluRay.1080p.DTS-HD.MA.5.1.AVC.REMUX-FraMeSToR.mkv
Format                                   : Matroska
Format version                           : Version 4 / Version 2
File size                                : 23.5 GiB
Duration                                 : 1 h 26 min
Overall bit rate mode                    : Variable
Overall bit rate                         : 38.8 Mb/s
Movie name                               : Nine Lives
Encoded date                             : UTC 2016-10-24 13:25:56
Writing application                      : mkvmerge v9.5.0 ('Quiet Fire') 64bit
Writing library                          : libebml v1.3.4 + libmatroska v1.4.5

Video
ID                                       : 1
Format                                   : AVC
Format/Info                              : Advanced Video Codec
Format profile                           : High@L4.1
Format settings, CABAC                   : Yes
Format settings, ReFrames                : 4 frames
Codec ID                                 : V_MPEG4/ISO/AVC
Duration                                 : 1 h 26 min
Bit rate mode                            : Variable
Bit rate                                 : 35.6 Mb/s
Maximum bit rate                         : 39.0 Mb/s
Width                                    : 1 920 pixels
Height                                   : 1 080 pixels
Display aspect ratio                     : 16:9
Frame rate mode                          : Constant
Frame rate                               : 23.976 (24000/1001) FPS
Color space                              : YUV
Chroma subsampling                       : 4:2:0
Bit depth                                : 8 bits
Scan type                                : Progressive
Bits/(Pixel*Frame)                       : 0.716
Stream size                              : 21.6 GiB (92%)
Default                                  : Yes
Forced                                   : No

Audio
ID                                       : 2
Format                                   : DTS
Format/Info                              : Digital Theater Systems
Format profile                           : MA / Core
Mode                                     : 16
Format settings, Endianness              : Big
Codec ID                                 : A_DTS
Duration                                 : 1 h 26 min
Bit rate mode                            : Variable / Constant
Bit rate                                 : 3 072 kb/s / 1 509 kb/s
Channel(s)                               : 6 channels
Channel positions                        : Front: L C R, Side: L R, LFE
Sampling rate                            : 48.0 kHz
Frame rate                               : 93.750 FPS (512 spf)
Bit depth                                : 24 bits
Compression mode                         : Lossless / Lossy
Stream size                              : 1.88 GiB (8%)
Title                                    : DTS-HD MA 5.1
Language                                 : English
Default                                  : Yes
Forced                                   : No

Text #1
ID                                       : 3
Format                                   : PGS
Codec ID                                 : S_HDMV/PGS
Codec ID/Info                            : Picture based subtitle format used on BDs/HD-DVDs
Duration                                 : 1 h 20 min
Bit rate                                 : 54.3 kb/s
Count of elements                        : 3210
Stream size                              : 31.3 MiB (0%)
Title                                    : English (SDH)
Language                                 : English
Default                                  : Yes
Forced                                   : No

Text #2
ID                                       : 4
Format                                   : PGS
Codec ID                                 : S_HDMV/PGS
Codec ID/Info                            : Picture based subtitle format used on BDs/HD-DVDs
Duration                                 : 1 h 26 min
Bit rate                                 : 39.8 kb/s
Count of elements                        : 2558
Stream size                              : 24.5 MiB (0%)
Title                                    : Spanish (Latin American)
Language                                 : Spanish
Default                                  : No
Forced                                   : No

Menu
00:00:00.000                             : en:Chapter 1
00:09:57.471                             : en:Chapter 2
00:20:21.011                             : en:Chapter 3
00:30:52.851                             : en:Chapter 4
00:39:22.276                             : en:Chapter 5
00:49:29.299                             : en:Chapter 6
01:00:11.774                             : en:Chapter 7
01:09:54.648                             : en:Chapter 8
01:19:27.888                             : en:Chapter 9

Скриншоты:



Все одноименные релизы в Клубе

Время раздачи: с 13:00 до 23:00
[NNMClub.to]_Nine.Lives.2016.BluRay.1080p.DTS-HD.MA.5.1.AVC.REMUX-FraMeSToR.mkv.torrent
 Торрент: Золотая раздача  Зарегистрирован
 
Примагнититься
Free Leech
Зарегистрируйтесь и скачайте торрент!
118 KB
 Зарегистрирован:   25 Окт 2016 16:49:47
 Размер:   23,5 GB  (
 Рейтинг:   4,8 (Голосов: 15)
 Поблагодарили:   62
 Проверка:   Оформление проверено модератором 25 Окт 2016 16:53:59
Как cкачать  ·  Как раздать  ·  Правильно оформить  ·  Поднять ратио!  
Montaigne
Стаж: 5 лет 4 мес.
Сообщений: 95
Ratio: 77,881
Раздал: 40,17 TB
100%
russia.gif
Производство: Франция, Китай
:задумался:
Интригует

_________________
↓ 100 Мбит/с ↑ 100 Мбит/с
funtden
Стаж: 3 года 4 мес.
Сообщений: 34
Ratio: 11,829
100%
Может кто знает когда данный фильм выходит в iTunes ?
yanag1908
Стаж: 3 года 9 мес.
Сообщений: 2
Ratio: 24,919
33.33%
Фильм оч понравился, смотрели всей семьей, дети хохотали до слез)
Показать сообщения:   
Начать новую тему   Ответить на тему    Торрент-трекер NNM-Club -> Зарубежное кино -> Фильмы в оригинале (HD) Часовой пояс: GMT + 3
Страница 1 из 1