Интеллигентный торрент-трекер
canvas not supported
Нас вместе: 4 105 942

Кикбоксер / Kickboxer: Vengeance (2016) BDRip [H.264/1080p] [EN]


 
 
RSS
Начать новую тему   Ответить на тему    Торрент-трекер NNM-Club -> Зарубежное кино -> Фильмы в оригинале (HD)
Автор Сообщение
smaster67 ®
Модератор Видео
Покровитель талантов Uploader 300+
Стаж: 7 лет 5 мес.
Сообщений: 6263
Ratio: 180,187
Поблагодарили: 173930
100%
Кикбоксер / Kickboxer: Vengeance (2016) BDRip [H.264/1080p] [EN]

Производство: США
Жанр: боевик

Режиссер: Джон Стокуэлл
Актеры:
Ален Мусси, Жорж Ст. Пьер, Т.Дж. Сторм, Мэттью Зифф, Сэм Медина, Дэйв Батиста, Сью-Линн Ансари, Даррен Шалави, Джина Карано, Хоун Трэн, Жан-Клод Ван Дамм

Описание:
Сюжет разворачивается вокруг братьев из калифорнийской династии бойцов Эрика и Курта Слоан. Эрик погибает в одном из поединков в Гонконге. Узнав об этом, Курт едет в Таиланд к своему наставнику, с помощью которого рассчитывает обрести силу воли, чтобы отомстить за смерть брата.



Продолжительность: 01:30:25
Качество видео: BDRip 1080p
Перевод: Отсутствует
Язык озвучки: Английский

Видео: AVC, 1920x800 (2.40:1), 8872 kbps, 23,976 fps, 0,241 bpp
Аудио: английский / DTS / 5.1 / 48 kHz / 1509 kbps / 24 bit
Код: выделить все
General
Unique ID                              Kickboxer.Vengeance.2016.1080p.mkv
Format                                   : Matroska
Format version                           : Version 4 / Version 2
File size                                : 6.56 GiB
Duration                                 : 1 h 30 min
Overall bit rate                         : 10.4 Mb/s
Encoded date                             : UTC 2016-10-27 14:11:50
Writing application                      : mkvmerge v8.3.0 ('Over the Horizon') 64bit
Writing library                          : libebml v1.3.1 + libmatroska v1.4.2

Video
ID                                       : 1
Format                                   : AVC
Format/Info                              : Advanced Video Codec
Format profile                           : High@L4.1
Format settings, CABAC                   : Yes
Format settings, ReFrames                : 5 frames
Codec ID                                 : V_MPEG4/ISO/AVC
Duration                                 : 1 h 30 min
Bit rate                                 : 8 872 kb/s
Width                                    : 1 920 pixels
Height                                   : 800 pixels
Display aspect ratio                     : 2.40:1
Frame rate mode                          : Constant
Frame rate                               : 23.976 FPS
Color space                              : YUV
Chroma subsampling                       : 4:2:0
Bit depth                                : 8 bits
Scan type                                : Progressive
Bits/(Pixel*Frame)                       : 0.241
Stream size                              : 5.60 GiB (85%)
Writing library                          : x264 core 148 r2705 3f5ed56
Encoding settings                        : cabac=1 / ref=5 / deblock=1:0:0 / analyse=0x3:0x133 / me=umh / subme=7 / psy=1 / psy_rd=1.00:0.00 / mixed_ref=1 / me_range=16 / chroma_me=1 / trellis=1 / 8x8dct=1 / cqm=0 / deadzone=21,11 / fast_pskip=0 / chroma_qp_offset=-2 / threads=24 / lookahead_threads=4 / sliced_threads=0 / nr=0 / decimate=1 / interlaced=0 / bluray_compat=0 / constrained_intra=0 / bframes=3 / b_pyramid=2 / b_adapt=1 / b_bias=0 / direct=1 / weightb=1 / open_gop=0 / weightp=2 / keyint=250 / keyint_min=23 / scenecut=40 / intra_refresh=0 / rc_lookahead=40 / rc=2pass / mbtree=1 / bitrate=8872 / ratetol=1.0 / qcomp=0.60 / qpmin=0 / qpmax=69 / qpstep=4 / cplxblur=20.0 / qblur=0.5 / ip_ratio=1.40 / aq=1:1.00
Language                                 : English
Default                                  : Yes
Forced                                   : No

Audio
ID                                       : 2
Format                                   : DTS
Format/Info                              : Digital Theater Systems
Mode                                     : 16
Format settings, Endianness              : Big
Codec ID                                 : A_DTS
Duration                                 : 1 h 30 min
Bit rate mode                            : Constant
Bit rate                                 : 1 509 kb/s
Channel(s)                               : 6 channels
Channel positions                        : Front: L C R, Side: L R, LFE
Sampling rate                            : 48.0 kHz
Frame rate                               : 93.750 FPS (512 spf)
Bit depth                                : 24 bits
Compression mode                         : Lossy
Stream size                              : 976 MiB (15%)
Language                                 : English
Default                                  : Yes
Forced                                   : No

Menu
00:00:00.000                             : en:00:00:00.000
00:09:58.807                             : en:00:09:58.807
00:19:27.500                             : en:00:19:27.500
00:30:01.383                             : en:00:30:01.383
00:39:43.339                             : en:00:39:43.339
00:50:19.183                             : en:00:50:19.183
01:00:29.417                             : en:01:00:29.417
01:08:08.835                             : en:01:08:08.835
01:14:56.826                             : en:01:14:56.826
01:24:47.291                             : en:01:24:47.291

Скриншоты:



Все одноименные релизы в Клубе

Время раздачи: с 13:00 до 23:00
[NNMClub.to]_Kickboxer.Vengeance.2016.1080p.mkv.torrent
 Торрент: Золотая раздача  Зарегистрирован
 
Примагнититься
Free Leech
Зарегистрируйтесь и скачайте торрент!
33 KB
 Зарегистрирован:   27 Окт 2016 22:08:26
 Размер:   6,56 GB  (
 Рейтинг:    (Голосов: 7)
 Поблагодарили:   37
 Проверка:   Оформление проверено модератором 27 Окт 2016 22:09:00
Как cкачать  ·  Как раздать  ·  Правильно оформить  ·  Поднять ратио!  
DeJekka
Стаж: 6 лет 1 мес.
Сообщений: 45
Ratio: 5,534
33.68%
russia.gif
Пасаны, Ван Дам чтоль?))))
Чёт не узнал ))) +++
rayden95
Стаж: 5 лет 9 мес.
Сообщений: 82
Ratio: 19,541
100%
Откуда: Владимир
DeJekka писал(а): Перейти к сообщению
Пасаны, Ван Дам чтоль?))))
Чёт не узнал ))) +++


Да...Ван Дамм, но фильм я скажу так себе, я с трудом досмотрел до конца.
Показать сообщения:   
Начать новую тему   Ответить на тему    Торрент-трекер NNM-Club -> Зарубежное кино -> Фильмы в оригинале (HD) Часовой пояс: GMT + 3
Страница 1 из 1