Интеллигентный торрент-трекер
canvas not supported
Нас вместе: 4 103 766

Кикбоксер / Kickboxer: Vengeance (2016) HDRip


 
 
RSS
Начать новую тему   Ответить на тему    Торрент-трекер NNM-Club -> Горячие новинки -> Зарубежные Новинки (HD*Rip/LQ, DVDRip)
Автор Сообщение
den-ru801 ®

Online
Стаж: 1 год 11 мес.
Сообщений: 535
Ratio: 672,927
Поблагодарили: 183580
100%
russia.gif
Кикбоксер / Kickboxer: Vengeance (2016) HDRip

Производство: США
Жанр: боевик

Режиссер: Джон Стокуэлл
Актеры: Ален Мусси, Жорж Сен-Пьер, Т.Дж. Сторм, Мэттью Зифф, Сэм Медина, Дэйв Батиста, Сью-Линн Ансари, Даррен Шалави, Джина Карано, Хоун Трэн, Сара Малакул Лэйн, Танапол Чуксрида, Жан-Клод Ван Дамм

Описание:
Сюжет разворачивается вокруг братьев из калифорнийской династии бойцов Эрика и Курта Слоан. Эрик погибает в одном из поединков в Гонконге. Узнав об этом, Курт едет в Таиланд к своему наставнику, с помощью которого рассчитывает обрести силу воли, чтобы отомстить за смерть брата.


Дата мировой премьеры: 14 июля 2016

Продолжительность: 01:30:25
Качество видео: HDRip
Перевод: Любительский многоголосый (СПД)
Субтитры: отсутствуют

Видео: Xvid, 720x304, 1709 Kbps
Аудио : AC-3, 48.0 KHz, 6 ch, 448 Kbps
Код: выделить все
Общее
Полное имя                               : F:\KickBoxer.NasLediE.2O16.P.HDRip.NNM-CLUB.avi
Формат                                   : AVI
Формат/Информация                        : Audio Video Interleave
Размер файла                             : 1,37 Гбайт
Продолжительность                        : 1 ч. 30 м.
Общий поток                              : 2166 Кбит/сек
Программа кодирования                    : VirtualDubMod 1.5.10.2 (build 2540/release)
Библиотека кодирования                   : VirtualDubMod build 2540/release

Видео
Идентификатор                            : 0
Формат                                   : MPEG-4 Visual
Профиль формата                          : Advanced Simple@L5
Параметр BVOP формата                    : 2
Параметр QPel формата                    : Нет
Параметр GMC формата                     : Без точки перехода
Параметр матрицы формата                 : Выборочная
Идентификатор кодека                     : XVID
Идентификатор кодека/Подсказка           : XviD
Продолжительность                        : 1 ч. 30 м.
Битрейт                                  : 1709 Кбит/сек
Ширина                                   : 720 пикселей
Высота                                   : 304 пикселя
Соотношение сторон                       : 2,35:1
Частота кадров                           : 23,976 (24000/1001) кадра/сек
Цветовое пространство                    : YUV
Субдискретизация насыщенности            : 4:2:0
Битовая глубина                          : 8 бит
Тип развёртки                            : Прогрессивная
Метод сжатия                             : С потерями
Бит/(Пиксели*Кадры)                      : 0.326
Размер потока                            : 1,08 Гбайт (79%)
Библиотека кодирования                   : XviD 1.2.1 (UTC 2008-12-04)

Аудио
Идентификатор                            : 1
Формат                                   : AC-3
Формат/Информация                        : Audio Coding 3
Расширение режима                        : CM (complete main)
Параметр Endianness формата              : Big
Идентификатор кодека                     : 2000
Продолжительность                        : 1 ч. 30 м.
Вид битрейта                             : Постоянный
Битрейт                                  : 448 Кбит/сек
Каналы                                   : 6 каналов
Расположение каналов                     : Front: L C R, Side: L R, LFE
Частота                                  : 48,0 КГц
Частота кадров                           : 31,250 кадров/сек (1536 spf)
Метод сжатия                             : С потерями
Размер потока                            : 290 Мбайт (21%)
Выравнивание                             : Разделение по промежуткам
Продолжительность промежутка             : 42  мс. (1,00 видеокадр)
Время предзагрузки промежутка            : 500  мс.

Скриншоты:



Все одноименные релизы в Клубе

Время раздачи: 24/7 до 10 скачавших
[NNMClub.to]_KickBoxer.NasLediE.2O16.P.HDRip.NNM-CLUB.avi.torrent
 Торрент:   Зарегистрирован
 
Примагнититься
Free Leech
Зарегистрируйтесь и скачайте торрент!
14,2 KB
 Зарегистрирован:   28 Окт 2016 05:11:12
 Размер:   1,37 GB  (
 Рейтинг:   4,6 (Голосов: 44)
 Поблагодарили:   255
 Проверка:   Оформление проверено модератором 28 Окт 2016 15:14:11
Как cкачать  ·  Как раздать  ·  Правильно оформить  ·  Поднять ратио!  
kosZ
Стаж: 8 лет 4 мес.
Сообщений: 104
Ratio: 3,807
Поблагодарили: 1304
49.25%
nnm-club.gif
Шо ? Опять?
Cathe​rineG​uroff​
Стаж: 7 лет
Сообщений: 94
Ratio: 12,557
77.16%
russia.gif
kosZ писал(а): Перейти к сообщению
Шо ? Опять?
А главное - зачем? :смех:
zoomx8
Стаж: 5 лет 5 мес.
Сообщений: 326
Ratio: 3,853
Поблагодарили: 1
100%
russia.gif
Кикбоксер-redux. :смех:
Fakeroo
Стаж: 4 года 1 мес.
Сообщений: 13
Ratio: 2,244
Поблагодарили: 8
0.86%
Ну можно посмотреть хотя бы потому, что в фильме снимаются Жорж Сен-Пьер, Кейн Веласкез и Фабрисиу Вердум)
besdna
Стаж: 7 лет 3 мес.
Сообщений: 107
Ratio: 10,317
0.69%
ukraine.gif
...и Джина Карано )))) (еси шо - снайпер Наташа Волкова из Red Alert 3 в роликах)..
IIIakk
Стаж: 5 лет 1 мес.
Сообщений: 396
Ratio: 5,075
90.9%
russia.gif
Ниасилил, шлак.
breakfruit
 
Стаж: 8 лет 9 мес.
Сообщений: 633
Ratio: 59,591
Раздал: 21,39 TB
Поблагодарили: 2796
100%
nnm-club.gif
Не, парни, Тонг По 89го года - непереплюваемый.

_________________
ASUS P8H67 | Intel Core i5-2400 | 16GB HyperX | 260 SSD Intel + 6TB WD Green | Windows 10
denden1113
Стаж: 2 мес. 8 дней
Сообщений: 1
Ratio: 2,123
0%
Ван Дамм там для обложки?
Lavkraft
Стаж: 5 лет 2 мес.
Сообщений: 22
Ratio: 6,524
4.39%
На последнем скрине Павел Воля в вертушке застыл)))) надо смотреть.
Игорь​_Тури​ст​
Стаж: 5 лет 10 мес.
Сообщений: 322
Ratio: 89,862
100%
Откуда: Ровно
ukraine.gif
Досмотрел до конца))) Ну не убедительно, и всё тут! Да и олдскульный Тонг По поколоритнее, и на много!)))
LegikKNYAZ
Стаж: 3 года 8 мес.
Сообщений: 85
Ratio: 4,937
0.12%
что-то мне это напоминает
Ilya323
Стаж: 7 лет 1 мес.
Сообщений: 65
Ratio: 51,985
100%
где-то я уже это видел.
Показать сообщения:   
Начать новую тему   Ответить на тему    Торрент-трекер NNM-Club -> Горячие новинки -> Зарубежные Новинки (HD*Rip/LQ, DVDRip) Часовой пояс: GMT + 3
Страница 1 из 1