Интеллигентный торрент-трекер
canvas not supported
Нас вместе: 4 112 303

Последняя фантазия XV - Омен / Final Fantasy XV - Omen (2016) WEBRip [H.264/1080p] [Трейлер]


 
 
RSS
Начать новую тему   Ответить на тему    Торрент-трекер NNM-Club -> Горячие новинки -> Трейлеры
Автор Сообщение
Cain_0 ®
Стаж: 1 год
Сообщений: 267
Ratio: 97,628
Раздал: 5,55 TB
Поблагодарили: 6803
100%
Откуда: Outer Heaven
Последняя фантазия XV - Омен / Final Fantasy XV - Omen (2016) WEBRip [H.264/1080p] [Трейлер]
Год выпуска: 2016
Производство: DIGIC Pictures
Жанр: Короткометражный, Приключения, Фантастика, Драма

Описание:
"Омен" - короткий CG фильм от DIGIC Pictures, вдохновленный Final Fantasy XV.

Быстро меняющийся мир, враги, которые появляются бесконечно, постепенная потеря способностей... И безумие, которое наносит вред любимому человеку.

Этот короткий фильм можно описать только как кошмар для борющегося Noctis и является результатом сотрудничества между Final Fantasy XV и DIGIC Pictures, всемирно известной студией 3D анимации, которая также принимала участие в создании KINGSGLAIVE Final Fantasy XV.


Продолжительность: 00:04:26
Качество видео: WEBRip 1080p
Перевод: Отсутствует
Субтитры: Отсутствуют

Видео: AVC/H.264, 1920x1080, ~42Mbps
Аудио: AC3, 2 ch, 317 Kbps, VBR
General
Complete name : D:\Videos\FFXV_Omen_Trailer_1080p24_XB1_EN_PEGI16_1477580098.mp4
Format : MPEG-4
Format profile : Base Media / Version 2
Codec ID : mp42 (mp42/mp41)
File size : 1.34 GiB
Duration : 4 min
Overall bit rate mode : Variable
Overall bit rate : 43.2 Mb/s
Encoded date : UTC 2016-10-24 18:58:56
Tagged date : UTC 2016-10-24 18:58:56

Video
ID : 1
Format : AVC
Format/Info : Advanced Video Codec
Format profile : High@L4.1
Format settings, CABAC : Yes
Format settings, ReFrames : 3 frames
Format settings, GOP : M=3, N=12
Codec ID : avc1
Codec ID/Info : Advanced Video Coding
Duration : 4 min
Bit rate mode : Constant
Bit rate : 42.9 Mb/s
Nominal bit rate : 50.0 Mb/s
Width : 1 920 pixels
Height : 1 080 pixels
Display aspect ratio : 16:9
Frame rate mode : Constant
Frame rate : 23.976 (24000/1001) FPS
Standard : NTSC
Color space : YUV
Chroma subsampling : 4:2:0
Bit depth : 8 bits
Scan type : Progressive
Bits/(Pixel*Frame) : 0.862
Stream size : 1.33 GiB (99%)
Language : English
Encoded date : UTC 2016-10-24 18:58:56
Tagged date : UTC 2016-10-24 18:58:56
Color range : Limited
Color primaries : BT.709
Transfer characteristics : BT.709
Matrix coefficients : BT.709

Audio
ID : 2
Format : AAC
Format/Info : Advanced Audio Codec
Format profile : LC
Codec ID : 40
Duration : 4 min
Source duration : 4 min
Bit rate mode : Variable
Bit rate : 317 kb/s
Maximum bit rate : 441 kb/s
Channel(s) : 2 channels
Channel positions : Front: L R
Sampling rate : 48.0 kHz
Frame rate : 46.875 FPS (1024 spf)
Compression mode : Lossy
Stream size : 10.1 MiB (1%)
Source stream size : 10.1 MiB (1%)
Language : English
Encoded date : UTC 2016-10-24 18:58:56
Tagged date : UTC 2016-10-24 18:58:56

Скриншоты:


Все одноименные релизы в Клубе
Время раздачи: По мере возможности... (до появления первых 3-5 скачавших)
[NNMClub.to]_FFXV_Omen_Trailer_1080p24_XB1_EN_PEGI16_1477580098.mp4.torrent
 Торрент:   Зарегистрирован
 
Примагнититься
Free Leech
Зарегистрируйтесь и скачайте торрент!
13,6 KB
 Зарегистрирован:   28 Окт 2016 13:24:43
 Размер:   1,34 GB  (
 Рейтинг:   5 (Голосов: 11)
 Поблагодарили:   31
 Проверка:   Оформление проверено модератором 13 Ноя 2016 12:46:56
Как cкачать  ·  Как раздать  ·  Правильно оформить  ·  Поднять ратио!  


Последний раз редактировалось: Cain_0 (13 Ноя 2016 12:39:22), всего редактировалось 2 раз(а)
Топик был перенесен из форума Видео (temp) в форум Трейлеры



Исправил релиз - напиши ЛС Full HD Video, дав ссылку на релиз.
Если нет ответа 24 часа - нажми на кнопку "Обратить внимание модераторов".
Показать сообщения:   
Начать новую тему   Ответить на тему    Торрент-трекер NNM-Club -> Горячие новинки -> Трейлеры Часовой пояс: GMT + 3
Страница 1 из 1