Интеллигентный торрент-трекер
canvas not supported
Нас вместе: 4 116 307

Искусственный интеллект. Доступ неограничен / I.T. (2016) BDRip [H.264/720p] [EN]


 
 
RSS
Начать новую тему   Ответить на тему    Торрент-трекер NNM-Club -> Зарубежное кино -> Фильмы в оригинале (HD)
Автор Сообщение
smaster67 ®
Модератор Видео
Покровитель талантов Uploader 300+
Стаж: 7 лет 5 мес.
Сообщений: 6278
Ratio: 181,074
Поблагодарили: 174757
100%
Искусственный интеллект. Доступ неограничен / I.T. (2016) BDRip [H.264/720p] [EN]

Производство: Ирландия, Франция, Дания
Жанр: триллер, драма, криминал, детектив

Режиссер: Джон Мур
Актеры: Пирс Броснан, Джейсон Бэрри, Карен Москоу, Кай Риссдал, Брайн Малвей, Мартин Хайнди, Рико Хисон, Анна Фрил, Стефани Скотт, Майкл Лысак, Клэр-Хоуп Эшити, Винсент Мерфи

Описание:
Вся жизнь Майка Ригана и его семьи построена на последних достижениях искусственного интеллекта и высоких технологий, а его «умный» дом - настоящее произведение технического искусства. Когда Майк пытается прекратить зашедшие слишком далеко отношения своего IT-специалиста Эда с юной дочерью, жизнь Ригана и его семьи оказываются под угрозой. Они попадают в ловушку созданных Риганом «умных технологий», которыми теперь управляет безумный гений Эд, вовлекая Ригана в опасную и непредсказуемую игру.



Продолжительность: 01:35:58
Качество видео: BDRip 720p
Перевод: Отсутствует
Язык озвучки: Английский

Видео: AVC, 1280x536 (2.40:1), 5009 kbps, 23,976 fps, 0,305 bpp
Аудио: английский / DTS / 5.1 / 48 kHz / 1509 kbps / 24 bit
Код: выделить все
General
Unique ID                                I.T.2016.720p.mkv
Format                                   : Matroska
Format version                           : Version 4 / Version 2
File size                                : 4.37 GiB
Duration                                 : 1 h 35 min
Overall bit rate                         : 6 519 kb/s
Encoded date                             : UTC 2016-10-29 02:15:10
Writing application                      : mkvmerge v8.3.0 ('Over the Horizon') 64bit
Writing library                          : libebml v1.3.1 + libmatroska v1.4.2

Video
ID                                       : 1
Format                                   : AVC
Format/Info                              : Advanced Video Codec
Format profile                           : High@L4.1
Format settings, CABAC                   : Yes
Format settings, ReFrames                : 5 frames
Codec ID                                 : V_MPEG4/ISO/AVC
Duration                                 : 1 h 35 min
Bit rate                                 : 5 009 kb/s
Width                                    : 1 280 pixels
Height                                   : 536 pixels
Display aspect ratio                     : 2.40:1
Frame rate mode                          : Constant
Frame rate                               : 23.976 FPS
Color space                              : YUV
Chroma subsampling                       : 4:2:0
Bit depth                                : 8 bits
Scan type                                : Progressive
Bits/(Pixel*Frame)                       : 0.305
Stream size                              : 3.36 GiB (77%)
Writing library                          : x264 core 148 r2705 3f5ed56
Encoding settings                        : cabac=1 / ref=5 / deblock=1:0:0 / analyse=0x3:0x133 / me=umh / subme=7 / psy=1 / psy_rd=1.00:0.00 / mixed_ref=1 / me_range=16 / chroma_me=1 / trellis=1 / 8x8dct=1 / cqm=0 / deadzone=21,11 / fast_pskip=0 / chroma_qp_offset=-2 / threads=12 / lookahead_threads=2 / sliced_threads=0 / nr=0 / decimate=1 / interlaced=0 / bluray_compat=0 / constrained_intra=0 / bframes=3 / b_pyramid=2 / b_adapt=1 / b_bias=0 / direct=1 / weightb=1 / open_gop=0 / weightp=2 / keyint=250 / keyint_min=23 / scenecut=40 / intra_refresh=0 / rc_lookahead=40 / rc=2pass / mbtree=1 / bitrate=5009 / ratetol=1.0 / qcomp=0.60 / qpmin=0 / qpmax=69 / qpstep=4 / cplxblur=20.0 / qblur=0.5 / ip_ratio=1.40 / aq=1:1.00
Language                                 : English
Default                                  : Yes
Forced                                   : No

Audio
ID                                       : 2
Format                                   : DTS
Format/Info                              : Digital Theater Systems
Mode                                     : 16
Format settings, Endianness              : Big
Codec ID                                 : A_DTS
Duration                                 : 1 h 35 min
Bit rate mode                            : Constant
Bit rate                                 : 1 509 kb/s
Channel(s)                               : 6 channels
Channel positions                        : Front: L C R, Side: L R, LFE
Sampling rate                            : 48.0 kHz
Frame rate                               : 93.750 FPS (512 spf)
Bit depth                                : 24 bits
Compression mode                         : Lossy
Stream size                              : 1.01 GiB (23%)
Language                                 : English
Default                                  : Yes
Forced                                   : No

Menu
00:00:00.000                             : en:00:00:00.000
00:09:44.667                             : en:00:09:44.667
00:19:59.824                             : en:00:19:59.824
00:29:33.563                             : en:00:29:33.563
00:41:44.627                             : en:00:41:44.627
00:52:07.958                             : en:00:52:07.958
01:00:43.932                             : en:01:00:43.932
01:14:08.819                             : en:01:14:08.819
01:22:11.593                             : en:01:22:11.593
01:31:53.341                             : en:01:31:53.341

Скриншоты:



Все одноименные релизы в Клубе

Время раздачи: с 13:00 до 23:00
[NNMClub.to]_I.T.2016.720p.mkv.torrent
 Торрент: Серебряная раздча  Зарегистрирован
 
Примагнититься

Зарегистрируйтесь и скачайте торрент!
22 KB
 Зарегистрирован:   29 Окт 2016 08:14:49
 Размер:   4,37 GB  (
 Рейтинг:    (Голосов: 5)
 Поблагодарили:   36
 Проверка:   Оформление проверено модератором 29 Окт 2016 08:15:07
Как cкачать  ·  Как раздать  ·  Правильно оформить  ·  Поднять ратио!  
Vlad
Стаж: 3 года 4 мес.
Сообщений: 25
Ratio: 44,07
25%
Скачал не посмотрев описание что фильм на АНГЛИЙСКОМ!!! а ведь надеялся что всё впорядке как обычно. Вопрос зачем выкладывать фильм без ПЕРЕВОДА!!!!!!!
Jecacs
Стаж: 3 года 11 мес.
Сообщений: 28
Ratio: 2,838
22.29%
Vlad писал(а): Перейти к сообщению
Скачал не посмотрев описание что фильм на АНГЛИЙСКОМ!!! а ведь надеялся что всё впорядке как обычно. Вопрос зачем выкладывать фильм без ПЕРЕВОДА!!!!!!!

Читать внимательно нужно
kolho​z_vos​toka​
Стаж: 7 лет 1 мес.
Сообщений: 8
Ratio: 1,95
0.15%
Vlad писал(а): Перейти к сообщению
Скачал не посмотрев описание что фильм на АНГЛИЙСКОМ!!! а ведь надеялся что всё впорядке как обычно. Вопрос зачем выкладывать фильм без ПЕРЕВОДА!!!!!!!


что значит "зачем?"...некоторые из нас хотят смотреть фильмы в оригинале и перевод нам не к чему...странный вопрос какой-то...не говоря о том, что раздача оформлена правильно и все в описании :нет: :злость:
Vlad
Стаж: 3 года 4 мес.
Сообщений: 25
Ratio: 44,07
25%
kolhoz_vostoka писал(а): Перейти к сообщению
Vlad писал(а): Перейти к сообщению
Скачал не посмотрев описание что фильм на АНГЛИЙСКОМ!!! а ведь надеялся что всё впорядке как обычно. Вопрос зачем выкладывать фильм без ПЕРЕВОДА!!!!!!!


что значит "зачем?"...некоторые из нас хотят смотреть фильмы в оригинале и перевод нам не к чему...странный вопрос какой-то...не говоря о том, что раздача оформлена правильно и все в описании :нет: :злость:


пришлось заново качать другую раздачу на русском.
Показать сообщения:   
Начать новую тему   Ответить на тему    Торрент-трекер NNM-Club -> Зарубежное кино -> Фильмы в оригинале (HD) Часовой пояс: GMT + 3
Страница 1 из 1