Интеллигентный торрент-трекер
canvas not supported
Нас вместе: 4 110 864

Yello - Toy (2016) [DSD 2.0|2822,4/1|image|Vinyl-Rip] <Pop>


 
 
RSS
Начать новую тему   Ответить на тему    Торрент-трекер NNM-Club -> HD Audio и Многоканальная Музыка -> SACD-R
Автор Сообщение
eroxxxa ®
Стаж: 8 лет 5 мес.
Сообщений: 458
Ratio: 58,953
Поблагодарили: 6202
50.72%
Откуда: Newgorod
ussr.gif
Yello Toy
Год: 2016
Номер по каталогу: 00602547602619 EU
Жанр: Pop
Продолжительность: 01:00:47
Кодек: DSD64

Треклист:
01 Frautonium Intro
02 Limbo
03 30'000 Days
04 Electrified II
05 Cold Flame
06 Kiss The Cloud
07 Starlight Scene
08 Tool Of Love
09 Give You The World
10 Dialectical Kid
11 Dark Side
12 Pacific AM
13 Blue Biscuit
14 Lost in Motion
15 Magma
16 Toy Square
17 Frautonium
Рип Стига.
Устройство воспроизведения: самодельный, Dynavector 20x2
Предварительный усилитель: самодельный
АЦП: Korg MR-1000
Запись 1/5.6 MHz
Образ 1/2.8 MHz
Ресемплинг в меньшую сторону :да:
программой KORG AudioGate
Изготовлено из Винил рипа записанного в DSD.
Программой Philips SuperAuthor 3.0.3.0
автором этой раздачи.
Приготовлен для записи на ДВД болванку.
Как записать и слушать
foobar2000 1.3.7 / Dynamic Range Meter 1.1.1
log date: 2016-10-29 14:43:07

--------------------------------------------------------------------------------
Analyzed: Yello / Toy
--------------------------------------------------------------------------------

DR Peak RMS Duration Track
--------------------------------------------------------------------------------
DR9 -8.40 dB -23.42 dB 1:11 01-Frautonium Intro
DR12 -7.52 dB -21.66 dB 3:17 02-Limbo
DR11 -5.19 dB -21.29 dB 4:04 03-30'000 Days
DR13 -4.03 dB -21.68 dB 2:49 04-Electrified II
DR12 -4.86 dB -22.37 dB 4:03 05-Cold Flame
DR14 -5.34 dB -24.70 dB 3:15 06-Kiss The Cloud
DR14 -6.80 dB -22.57 dB 3:17 07-Starlight Scene
DR15 -5.43 dB -23.60 dB 3:15 08-Tool Of Love
DR11 -6.33 dB -20.93 dB 3:33 09-Give You The World
DR13 -6.65 dB -23.73 dB 3:20 10-Dialectical Kid
DR13 -7.07 dB -22.88 dB 4:15 11-Dark Side
DR12 -8.51 dB -24.35 dB 3:23 12-Pacific AM
DR13 -6.28 dB -24.28 dB 3:36 13-Blue Biscuit
DR14 -5.81 dB -23.03 dB 3:32 14-Lost in Motion
DR12 -9.08 dB -23.83 dB 6:26 15-Magma
DR11 -7.69 dB -21.85 dB 3:08 16-Toy Square
DR10 -7.81 dB -23.75 dB 4:22 17-Frautonium
--------------------------------------------------------------------------------

Number of tracks: 17
Official DR value: DR12

Samplerate: 88200 Hz
Channels: 2
Bits per sample: 24
Bitrate: 5645 kbps
Codec: DSD64
================================================================================
Время раздачи: 24/7 (до появления первых 3-5 скачавших)
[NNMClub.to]_[2016] Toy (00602547602619, EU) ISO.torrent
 Торрент: Золотая раздача  Зарегистрирован
 
Примагнититься
Free Leech
Зарегистрируйтесь и скачайте торрент!
12,6 KB
 Зарегистрирован:   29 Окт 2016 15:09:51
 Размер:   2,45 GB  (
 Рейтинг:   4,7 (Голосов: 19)
 Поблагодарили:   96
 Проверка:   Оформление проверено модератором 29 Окт 2016 17:40:38
Как cкачать  ·  Как раздать  ·  Правильно оформить  ·  Поднять ратио!  
welka
Стаж: 3 года 2 мес.
Сообщений: 40
Ratio: 1033,415
Раздал: 60,89 TB
3.19%
ussr.gif
Я так понимаю это рип уважаемого StigLarsson.
Птусский
Стаж: 2 года 9 мес.
Сообщений: 115
Ratio: 24,931
2.19%
Ремикс на 20 лет назад. RIP
Показать сообщения:   
Начать новую тему   Ответить на тему    Торрент-трекер NNM-Club -> HD Audio и Многоканальная Музыка -> SACD-R Часовой пояс: GMT + 3
Страница 1 из 1