Интеллигентный торрент-трекер
canvas not supported
Нас вместе: 4 340 121

Михаил Задорнов. Мы все учились понемногу (2016.10.29) SATRip


 
 
RSS
Начать новую тему   Ответить на тему    Торрент-трекер NNM-Club -> Юмор -> Сатирики
Автор Сообщение
svlesin ®
Модератор Документалистики/TV
RG Releasers
Релизер 24000+ Uploader 200+
 
Стаж: 7 лет 6 мес.
Сообщений: 31741
Ratio: 1296,933
Поблагодарили: 3025394
100%
russia.gif
Михаил Задорнов. Мы все учились понемног (2016.10.29) SATRip
Телекомпания: РЕН
Жанр: Юмористический концерт, сатира

Режиссер: Михаил Задорнов

Описание:
В новом проекте Михаила Задорнова "Мы все учились понемногу" писатель-сатирик рассуждает о реформе образования в нашей стране, о тупом подражании Западу и об удивительной безграмотности молодежи. Задорнов цитирует присланные ему зрителями сочинения школьников, высказывания учителей, тексты из учебников.

Продолжительность: ~ 01:35:21
Качество видео: SATRip
Субтитры: Отсутствуют

Видео: MPEG4, XviD, 704x448 (1.571), 25.000 fps, 1 978 Kbps (0.251 bit/pixel)
Аудио: MP3, 48.0 KHz, 2 ch, 192 Kbps, CBR
Код: выделить все
 Общее
Полное имя                               : D:\[1]\Задорнов\Михаил Задорнов. Мы все учились понемногу (2016.10.29).avi
Формат                                   : AVI
Формат/Информация                        : Audio Video Interleave
Размер файла                             : 1,45 Гбайт
Продолжительность                        : 1 ч. 35 м.
Общий поток                              : 2180 Кбит/сек
Программа кодирования                    : VirtualDubMod 1.5.10.3 | www.virtualdub-fr.org || (build 2550/release)
Библиотека кодирования                   : VirtualDubMod build 2550/release

Видео
Идентификатор                            : 0
Формат                                   : MPEG-4 Visual
Профиль формата                          : Advanced Simple@L5
Параметр BVOP формата                    : 2
Параметр QPel формата                    : Нет
Параметр GMC формата                     : Без точки перехода
Параметр матрицы формата                 : Default (H.263)
Идентификатор кодека                     : XVID
Идентификатор кодека/Подсказка           : XviD
Продолжительность                        : 1 ч. 35 м.
Битрейт                                  : 1978 Кбит/сек
Ширина                                   : 704 пикселя
Высота                                   : 448 пикселей
Соотношение сторон                       : 16:10
Частота кадров                           : 25,000 кадров/сек
Цветовое пространство                    : YUV
Субдискретизация насыщенности            : 4:2:0
Битовая глубина                          : 8 бит
Тип развёртки                            : Прогрессивная
Метод сжатия                             : С потерями
Бит/(Пиксели*Кадры)                      : 0.251
Размер потока                            : 1,32 Гбайт (91%)
Библиотека кодирования                   : XviD 1.2.1 (UTC 2008-12-04)

Аудио
Идентификатор                            : 1
Формат                                   : MPEG Audio
Версия формата                           : Version 1
Профиль формата                          : Layer 3
Режим                                    : Joint stereo
Расширение режима                        : MS Stereo
Идентификатор кодека                     : 55
Идентификатор кодека/Подсказка           : MP3
Продолжительность                        : 1 ч. 35 м.
Вид битрейта                             : Постоянный
Битрейт                                  : 192 Кбит/сек
Каналы                                   : 2 канала
Частота                                  : 48,0 КГц
Метод сжатия                             : С потерями
Размер потока                            : 131 Мбайт (9%)
Выравнивание                             : Соединение по промежуткам
Продолжительность промежутка             : 40  мс. (1,00 видеокадр)
Время предзагрузки промежутка            : 504  мс.
Библиотека кодирования                   : LAME3.99r
Настройки программы                      : -m j -V 4 -q 9 -lowpass 18.6 -b 192
 
Скриншоты:



Все одноименные релизы в Клубе
Время раздачи: 24/7. До первых 5 скачавших.
[NNMClub.to]_Mihail Zadornov. Myi vse uchilis' ponemnogu (2016.10.29).avi.torrent
 Торрент: Платиновая раздача  Зарегистрирован
 
Примагнититься

Скачать
 Зарегистрирован:   29 Окт 2016 15:22:54
 Размер:   1,45 GB  (
 Рейтинг:   3,4 (Голосов: 83)
 Поблагодарили:   236
 Проверка:   Оформление проверено модератором 29 Окт 2016 15:23:26
Как cкачать  ·  Как раздать  ·  Правильно оформить  ·  Поднять ратио!  
Залихман
Стаж: 1 год
Сообщений: 117
Ratio: 0,473
94.44%
sweden.gif
как там здоровье задорного? лечиться?
dedmoroz59
Стаж: 5 лет 9 мес.
Сообщений: 490
Ratio: 8,609
Поблагодарили: 1136
32.55%
russia.gif
Залихман писал(а): Перейти к сообщению
как там здоровье задорного? лечиться?
http://www.cosmo.ru/stars/news/13-10-2016/lechenie-predstoit-tyazheloe-i-dolgoe-mihail-zadornov-rasskazal-o-borbe-s-rakom/

_________________
Нет безвыходных ситуаций (Камасутра)
BOB2763
Стаж: 6 лет 10 мес.
Сообщений: 540
Ratio: 3,075
18.7%
Samoa.gif
Дай Бог ему здоровья.....назло всякой нечисти.
Залихман
Стаж: 1 год
Сообщений: 117
Ratio: 0,473
94.44%
sweden.gif
Iceberg15 писал(а): Перейти к сообщению
netcasper писал(а): Перейти к сообщению
Как же он всех задолбал...
Лечится то небось в "загнивающей европе"...

На родине лечится. Не переживайте и не говорите за всех.


у него родина в прибалтики . он сам говорил что ваще т эстонец
Показать сообщения:   
Начать новую тему   Ответить на тему    Торрент-трекер NNM-Club -> Юмор -> Сатирики Часовой пояс: GMT + 3
Страница 1 из 1