Интеллигентный торрент-трекер
canvas not supported
Нас вместе: 4 100 829

Миссия: Неадекватна / Army of One (2016) HDRip


Страницы:  1, 2, 3, 4  След. 
 
RSS
Начать новую тему   Ответить на тему    Торрент-трекер NNM-Club -> Горячие новинки -> Зарубежные Новинки (HD*Rip/LQ, DVDRip)
Автор Сообщение
den-ru801 ®
Стаж: 1 год 11 мес.
Сообщений: 531
Ratio: 671,672
Поблагодарили: 182049
100%
russia.gif
Миссия: Неадекватна / Army of One (2016) HDRip

Производство: США, Conde Nast Entertainment, Endgame Entertainment, Kasbah-Film Tanger
Жанр: комедия

Режиссер: Ларри Чарльз
Актеры: Николас Кейдж, Дэнис О’Хэр, Венди МакЛендон-Кови, Рэйн Уилсон, Расселл Брэнд, Фиона Врум, Уилл Сассо, Пол Шеер, Хилари Джардин, Адриан Мартинес, Тоби Харгрейв, Грэм Даффи

Описание:
Главный герой фильма - безработный бывший заключенный. К нему является Бог и просит отправиться в Пакистан - найти и убить Осаму бен Ладена.


Возраст: 16+ (зрителям, достигшим 16 лет)
Рейтинг MPAA: R (лицам до 17 лет обязательно присутствие взрослого)
Дата мировой премьеры: 3 ноября 2016
Дата премьеры в России: 15 декабря 2016, «Вольга»


Продолжительность: 01:33:17
Качество видео: HDRip
Перевод: Многоголосый закадровый, профессиональный (Синема УС)
Вид субтитров: Отсутствуют
Реклама: Присутствуют голосовые и текстовые вставки рекламы.

Видео: Xvid, 720x304, ~1705 kbps
Аудио: AC3, 2 ch, 384 kbps
Код: выделить все
Общее
Полное имя                               : F:\Army.of.One.2016.P.HDRip.NNM-CLUB.avi
Формат                                   : AVI
Формат/Информация                        : Audio Video Interleave
Размер файла                             : 1,37 Гбайт
Продолжительность                        : 1 ч. 33 м.
Общий поток                              : 2098 Кбит/сек
Программа кодирования                    : VirtualDubMod 1.5.10.2 (build 2540/release)
Библиотека кодирования                   : VirtualDubMod build 2540/release

Видео
Идентификатор                            : 0
Формат                                   : MPEG-4 Visual
Профиль формата                          : Advanced Simple@L5
Параметр BVOP формата                    : 2
Параметр QPel формата                    : Нет
Параметр GMC формата                     : Без точки перехода
Параметр матрицы формата                 : Default (MPEG)
Идентификатор кодека                     : XVID
Идентификатор кодека/Подсказка           : XviD
Продолжительность                        : 1 ч. 33 м.
Битрейт                                  : 1705 Кбит/сек
Ширина                                   : 720 пикселей
Высота                                   : 304 пикселя
Соотношение сторон                       : 2,35:1
Частота кадров                           : 23,976 (24000/1001) кадра/сек
Цветовое пространство                    : YUV
Субдискретизация насыщенности            : 4:2:0
Битовая глубина                          : 8 бит
Тип развёртки                            : Прогрессивная
Метод сжатия                             : С потерями
Бит/(Пиксели*Кадры)                      : 0.325
Размер потока                            : 1,11 Гбайт (81%)
Библиотека кодирования                   : XviD 1.2.1 (UTC 2008-12-04)

Аудио
Идентификатор                            : 1
Формат                                   : AC-3
Формат/Информация                        : Audio Coding 3
Расширение режима                        : CM (complete main)
Параметр Endianness формата              : Big
Идентификатор кодека                     : 2000
Продолжительность                        : 1 ч. 33 м.
Вид битрейта                             : Постоянный
Битрейт                                  : 384 Кбит/сек
Каналы                                   : 2 канала
Расположение каналов                     : Front: L R
Частота                                  : 48,0 КГц
Частота кадров                           : 31,250 кадров/сек (1536 spf)
Метод сжатия                             : С потерями
Размер потока                            : 256 Мбайт (18%)
Выравнивание                             : Разделение по промежуткам
Продолжительность промежутка             : 42  мс. (1,00 видеокадр)
Время предзагрузки промежутка            : 500  мс.

Скриншоты:



Все одноименные релизы в Клубе

Время раздачи: 24/7 до 10 скачавших
[NNMClub.to]_Army.of.One.2016.P.HDRip.NNM-CLUB.avi.torrent
 Торрент:   Зарегистрирован
 
Примагнититься
Free Leech
Зарегистрируйтесь и скачайте торрент!
14,2 KB
 Зарегистрирован:   30 Окт 2016 06:30:13
 Размер:   1,37 GB  (
 Рейтинг:   4,3 (Голосов: 160)
 Поблагодарили:   1016
 Проверка:   Оформление проверено модератором 30 Окт 2016 21:28:41
Как cкачать  ·  Как раздать  ·  Правильно оформить  ·  Поднять ратио!  
baklu
Стаж: 2 года
Сообщений: 397
Ratio: 0,729
100%
Вау Ник Кейдж, качаем легенду!
Polin​arum1​23​
Стаж: 1 год 6 мес.
Сообщений: 17
Ratio: 7,596
31.01%
Кто посмотрел? Отпишитесь, пожалуйста, можно ли это посмотреть без вреда для здоровья?
kiriss
Стаж: 7 лет
Сообщений: 114
Ratio: 30,092
Раздал: 38,31 TB
0.32%
russia.gif
Совсем видимо плохи дела у Николаса Кейджа......если снялся в этом,хм,не побоюсь этого слова"Цензура".
Raptor0977
Стаж: 6 лет 6 мес.
Сообщений: 3
Ratio: 12,349
Поблагодарили: 205
0.06%
russia.gif
HDRip появился раньше мировой премьеры..
baklu
Стаж: 2 года
Сообщений: 397
Ratio: 0,729
100%
Фильм надо смотреть, чтобы Гарри купил почку!
surikatx
Стаж: 4 года 11 мес.
Сообщений: 40
Ratio: 8,425
Раздал: 2,061 TB
Поблагодарили: 382
65.96%
ussr.gif
ДА это же шедевр
Злой Перец
 
Стаж: 5 лет 9 мес.
Сообщений: 601
Ratio: 4,72
100%
Откуда: Велик​оросс​ия​
russia.gif
Николас Кейдж и бред-чепуха становятся ещё ближе(....
Dicinson
Стаж: 6 лет
Сообщений: 710
Ratio: 18,904
100%
ussr.gif
Если бы бог и просил кого убить,то никак не бедолагу Усаму бен Ладена...
gos6000
Стаж: 5 лет 3 мес.
Сообщений: 113
Ratio: 29,163
100%
confederate.gif
В фильме не хватает Дени Трехо
evofrag
Стаж: 4 года 2 мес.
Сообщений: 2
Ratio: 1,281
1.18%
Почему на обложке Киркоров с Кейджем ?
Eklat
Стаж: 7 лет 2 мес.
Сообщений: 67
Ratio: 2,014
1.37%
russia.gif
Это не Кейдж, а Сванидзе..
psikoo
Стаж: 2 года 10 мес.
Сообщений: 5
Ratio: 2,781
1.19%
russia.gif
ужас не возможно смотреть,это "фонарь"товариши(
Neuro75
Стаж: 5 лет 9 мес.
Сообщений: 9
Ratio: 6,296
12.94%
russia.gif
Подожду без рекламы, потом оценю
Apri0ri
Стаж: 6 лет 4 мес.
Сообщений: 578
Ratio: 3,622
100%
Николас похоже на каких-то дорогих препаратах сидит и теперь ему сильно нужны деньги.. )
Показать сообщения:   
Начать новую тему   Ответить на тему    Торрент-трекер NNM-Club -> Горячие новинки -> Зарубежные Новинки (HD*Rip/LQ, DVDRip) Часовой пояс: GMT + 3
Страницы:  1, 2, 3, 4  След.
Страница 1 из 4