Интеллигентный торрент-трекер
canvas not supported
Нас вместе: 4 114 816

Миссия: Неадекватна / Army of One (2016) BDRip [H.264/1080p]


Страницы:  1, 2, 3, 4, 5, 6  След. 
 
RSS
Начать новую тему   Ответить на тему    Торрент-трекер NNM-Club -> Горячие новинки -> Новинки (HD)
Автор Сообщение
ElektrAа ®
Модератор Видео
RG Releasers
Uploader 300+
 
Стаж: 5 лет 10 мес.
Сообщений: 2463
Ratio: 14K
Раздал: 491,1 TB
Поблагодарили: 285324
100%
Откуда: Южная столица
ukraine.gif
Миссия: Неадекватна / Army of One (2016) BDRip [H.264/1080p]
Производство: США, Conde Nast Entertainment, Endgame Entertainment, Kasbah-Film Tanger
Жанр: Комедия

Режиссер: Ларри Чарльз
Актеры: Николас Кейдж, Дэнис О’Хэр, Венди МакЛендон-Кови, Рэйн Уилсон, Расселл Брэнд, Фиона Врум, Уилл Сассо, Пол Шеер, Хилари Джардин, Адриан Мартинес, Тоби Харгрейв, Грэм Даффи

Описание:
Главный герой фильма - безработный бывший заключенный. К нему является Бог и просит отправиться в Пакистан - найти и убить Осаму бен Ладена.


Возраст: 16+ (зрителям, достигшим 16 лет)
Рейтинг MPAA: R (лицам до 17 лет обязательно присутствие взрослого)
Дата мировой премьеры: 3 ноября 2016
Дата премьеры в России: 15 декабря 2016, «Вольга»


Продолжительность: 01:33:17
Качество видео: BDRip
Перевод: Многоголосый закадровый, профессиональный (Синема УС)
Вид субтитров: Отсутствуют
Реклама: Присутствуют голосовые и текстовые вставки рекламы.

Видео: MPEG-4 AVC, 1920x804, 10.8 Мбит/с
Аудио: AC3, 2 ch, 640 Кбит/с
General
Complete name : O:\Army.of.One.2016.P.BDRip.1O8Op_KOSHARA.mkv
Format : Matroska
File size : 7.58 GiB
Duration : 1h 33mn
Overall bit rate : 11.6 Mbps
Encoded date : UTC 2016-10-29 21:34:50
Writing application : mkvmerge v8.3.0 ('Over the Horizon') 64bit
Writing library : libebml v1.3.1 + libmatroska v1.4.2

Video
ID : 1
Format : AVC
Format/Info : Advanced Video Codec
Format profile : High@L4.1
Format settings, CABAC : Yes
Format settings, ReFrames : 5 frames
Muxing mode : Container profile=Unknown@4.1
Codec ID : V_MPEG4/ISO/AVC
Duration : 1h 33mn
Bit rate : 10.8 Mbps
Width : 1 920 pixels
Height : 804 pixels
Display aspect ratio : 2.35:1
Frame rate : 23.976 fps
Standard : Component
Resolution : 8 bits
Colorimetry : 4:2:0
Scan type : Progressive
Bits/(Pixel*Frame) : 0.291
Stream size : 7.01 GiB (92%)
Color primaries : BT.709-5, BT.1361, IEC 61966-2-4, SMPTE RP177
Transfer characteristics : BT.709-5, BT.1361
Matrix coefficients : BT.709-5, BT.1361, IEC 61966-2-4 709, SMPTE RP177

Audio
ID : 2
Format : AC-3
Format/Info : Audio Coding 3
Codec ID : A_AC3
Duration : 1h 33mn
Bit rate mode : Constant
Bit rate : 640 Kbps
Channel(s) : 2 channels
Channel positions : L R
Sampling rate : 48.0 KHz
Stream size : 427 MiB (6%)
Language : Russian

[/code]
Скриншоты:



Все одноименные релизы в Клубе

Время раздачи: 24/7
[NNMClub.to]_Army.of.One.2016.P.BDRip.1O8Op.mkv.torrent
 Торрент:   Зарегистрирован
 
Примагнититься
Free Leech
Зарегистрируйтесь и скачайте торрент!
19,3 KB
 Зарегистрирован:   30 Окт 2016 09:16:41
 Размер:   7,58 GB  (
 Рейтинг:   4,3 (Голосов: 161)
 Поблагодарили:   861
 Проверка:   Оформление проверено модератором 30 Окт 2016 10:05:18
Как cкачать  ·  Как раздать  ·  Правильно оформить  ·  Поднять ратио!  

_________________
«Правила оформления релизов в разделе Видео» | После исправлений - в ЛС
hipster75
Стаж: 7 лет 6 мес.
Сообщений: 217
Ratio: 2,218
45.02%
russia.gif
Что это такое? кто смотрел отпишите)
heather123
Стаж: 3 года 8 мес.
Сообщений: 23
Ratio: 13,985
72.24%
Откуда: Астана
kazakhstan.gif
Все ровно, Кейдж раньше в серьезных фильмах играл, а сейчас уже и не вспомнить где он играл посл раз нормально, может это кино и нормальное, но не такое, как было раньше, в 90ых к примеру, Одно имя его, уже знаешь что, 90% будет хорошее кино

_________________
Silent Hill - My Home Town
ksp_76
Стаж: 6 лет 3 мес.
Сообщений: 209
Ratio: 40,886
100%
Откуда: Мордовия
russia.gif
Фильм то стоит посмотреть?)
A2671
Стаж: 6 лет 2 мес.
Сообщений: 99
Ratio: 5,749
Поблагодарили: 2980
100%
Откуда: Moscow
ussr.gif
Цитата:
Кейдж раньше в серьезных фильмах играл

Не смешите меня. В бюджетных - да. А если еще вспомнить его недавний визит к Урганту, то можно понять, что ему пофигу где сниматься, лишь бы платили.
VAshdd
Стаж: 3 года 10 мес.
Сообщений: 477
Ratio: 11,055
23.39%
Посмотрите, это по реальным событиям, в конце фильма показывают этого чувака.
alien00

Online
Стаж: 5 лет 6 мес.
Сообщений: 252
Ratio: 4,129
14.35%
russia.gif
A2671 писал(а): Перейти к сообщению
Не смешите меня. В бюджетных - да...

Просвещайся. Не благодари. 25 главных ролей в фильма с рейтингом выше 7/10, и столько же с рейтингом близким к 7.

Там же обрати внимание на его гонорары. Всё ещё смешно?
nastromo63
Стаж: 3 года 2 мес.
Сообщений: 1
Ratio: 4,842
30.13%
ussr.gif
И все таки, кто смотрел? Как фильм?
Isoto​pE-55​5​

Online
Стаж: 4 года 8 мес.
Сообщений: 135
Ratio: 11,322
100%
russia.gif
Не взлетал он никогда. Фильмы с ним обхожу стороной.
Movier
Стаж: 6 лет 7 мес.
Сообщений: 13
Ratio: 2,666
0%
russia.gif
Не взлетал он никогда?С начала 90х и до середины двухтысячных один из качественнейших,но например Аль Пачино до сих пор признак качества...а вот Колян уже не...
Max_A​lekse​yev​
Стаж: 5 лет 9 мес.
Сообщений: 2982
Ratio: 56,907
Раздал: 52,97 TB
Поблагодарили: 858
100%
Откуда: Kharkov, UA
ukraine.gif
Я бы назвал его не хорошим актером, а раскрученным актёром. Как в своё время раскрутили Бена Афлека, ну какой он в баню актёр. Что можно его сравнить, например, с Кевином Спейси или Гарри Олдменом? Вот и вышел в тираж, чтобы продолжать играть вне зависимости от возраста надо быть разноплановым актером, ну а какой из Кейджа или Афлека Гамлет? :)
romeo​56519​81​
Стаж: 1 год 1 мес.
Сообщений: 71
Ratio: 11,064
100%
Откуда: Липецк
russia.gif
как фильм?)))
qiqy11
Стаж: 5 лет 4 мес.
Сообщений: 23
Ratio: 0,966
17.82%
russia.gif
не смотрите на имена актеров, смотрите на фильмографию режиссера,
https://www.kinopoisk.ru/name/34282/
фильм в его духе ... мне понравился
papulya781
Стаж: 4 года 2 мес.
Сообщений: 167
Ratio: 11,391
100%
Откуда: ДНР Донецк
кто бы что не говорил а актер замечательный и в массах достойных фильмах снялся с отличной игрой примерно до 2010 года, выше сказали что Аль Пачино лучше я бы как раз сказал бы на оборот он не плохой актер но уж сильно однообразен одна и та же мимика, ворожение и так дали во всех ролях ему подходит только одну роль играть и на этом всё
Романуза
Стаж: 5 лет 6 мес.
Сообщений: 114
Ratio: 2,396
75.29%
russia.gif
Фильм так никто и не посмотрел, зато Кейджа какашками закидали ))))
По мне, так Кейдж - молодец. Просто не всегда у него работает нюх на хороший сценарий.
Показать сообщения:   
Начать новую тему   Ответить на тему    Торрент-трекер NNM-Club -> Горячие новинки -> Новинки (HD) Часовой пояс: GMT + 3
Страницы:  1, 2, 3, 4, 5, 6  След.
Страница 1 из 6