Интеллигентный торрент-трекер
canvas not supported
Нас вместе: 4 119 202

Возмущение / Indignation (2016) BDRemux [H.264/1080p] [EN / EN, Sp Sub]


 
 
RSS
Начать новую тему   Ответить на тему    Торрент-трекер NNM-Club -> Зарубежное кино -> Фильмы в оригинале (HD)
Автор Сообщение
smaster67 ®
Модератор Видео
Покровитель талантов Uploader 300+
Стаж: 7 лет 5 мес.
Сообщений: 6280
Ratio: 181,241
Поблагодарили: 174929
100%
Возмущение / Indignation (2016) BDRemux [H.264/1080p] [EN / EN, Sp Sub]

Производство: США
Жанр: драма

Режиссер: Джеймс Шеймус
Актеры: Сара Гадон, Логан Лерман, Трэйси Леттс, Тихуана Рикс, Бен Розенфилд, Линда Эмонд, Дорис МакКарти, Мелани Блейк Рот, Джоэнн Барон, Ной Роббинс, Дэнни Бурстейн, Джейсон Эрик Зачек

Описание:
1951 год. Еврейский юноша Маркус Месснер едет из Ньюарка, штат Нью-Джерси в штат Огайо, где он собирается учиться в колледже. Там, на фоне продолжающийся войны в Корее, ему придется столкнуться с антисемитизмом и сексуальной подавленностью.



Продолжительность: 01:51:14
Качество видео: BDRemux
Перевод: Отсутствует
Язык озвучки: Английский
Язык субтитров: английский, испанский
Вид субтитров: Вшитые

Видео: AVC, 1920x1080 (16:9), 17849 kbps, 23,976 fps, 0,359 bpp
Аудио: английский / DTS-HD / 5.1 / 48 kHz / 3072 kbps / 24 bit (Core: 5.1 / 48 kHz / 1509 kbps / 24 bit)
Код: выделить все
General
Unique ID                                Indignation.2016.BluRay.1080p.DTS-HD.MA.5.1.AVC.REMUX-FraMeSToR\Indignation.2016.BluRay.1080p.DTS-HD.MA.5.1.AVC.REMUX-FraMeSToR.mkv
Format                                   : Matroska
Format version                           : Version 4 / Version 2
File size                                : 16.3 GiB
Duration                                 : 1 h 51 min
Overall bit rate mode                    : Variable
Overall bit rate                         : 21.0 Mb/s
Movie name                               : Indignation
Encoded date                             : UTC 2016-10-30 01:18:00
Writing application                      : mkvmerge v9.5.0 ('Quiet Fire') 64bit
Writing library                          : libebml v1.3.4 + libmatroska v1.4.5

Video
ID                                       : 1
Format                                   : AVC
Format/Info                              : Advanced Video Codec
Format profile                           : High@L4.1
Format settings, CABAC                   : Yes
Format settings, ReFrames                : 4 frames
Codec ID                                 : V_MPEG4/ISO/AVC
Duration                                 : 1 h 51 min
Bit rate mode                            : Variable
Bit rate                                 : 17.8 Mb/s
Maximum bit rate                         : 35.0 Mb/s
Width                                    : 1 920 pixels
Height                                   : 1 080 pixels
Display aspect ratio                     : 16:9
Frame rate mode                          : Constant
Frame rate                               : 23.976 (24000/1001) FPS
Color space                              : YUV
Chroma subsampling                       : 4:2:0
Bit depth                                : 8 bits
Scan type                                : Progressive
Bits/(Pixel*Frame)                       : 0.359
Stream size                              : 13.9 GiB (85%)
Default                                  : Yes
Forced                                   : No

Audio
ID                                       : 2
Format                                   : DTS
Format/Info                              : Digital Theater Systems
Format profile                           : MA / Core
Mode                                     : 16
Format settings, Endianness              : Big
Codec ID                                 : A_DTS
Duration                                 : 1 h 51 min
Bit rate mode                            : Variable / Constant
Bit rate                                 : 3 072 kb/s / 1 509 kb/s
Channel(s)                               : 6 channels
Channel positions                        : Front: L C R, Side: L R, LFE
Sampling rate                            : 48.0 kHz
Frame rate                               : 93.750 FPS (512 spf)
Bit depth                                : 24 bits
Compression mode                         : Lossless / Lossy
Stream size                              : 2.38 GiB (15%)
Title                                    : DTS-HD MA 5.1
Language                                 : English
Default                                  : Yes
Forced                                   : No

Text #1
ID                                       : 3
Format                                   : PGS
Codec ID                                 : S_HDMV/PGS
Codec ID/Info                            : Picture based subtitle format used on BDs/HD-DVDs
Duration                                 : 1 h 44 min
Bit rate                                 : 44.6 kb/s
Count of elements                        : 3014
Stream size                              : 33.2 MiB (0%)
Title                                    : English
Language                                 : English
Default                                  : Yes
Forced                                   : No

Text #2
ID                                       : 4
Format                                   : PGS
Codec ID                                 : S_HDMV/PGS
Codec ID/Info                            : Picture based subtitle format used on BDs/HD-DVDs
Duration                                 : 1 h 45 min
Bit rate                                 : 45.5 kb/s
Count of elements                        : 3113
Stream size                              : 34.3 MiB (0%)
Title                                    : English (SDH)
Language                                 : English
Default                                  : No
Forced                                   : No

Text #3
ID                                       : 5
Format                                   : PGS
Codec ID                                 : S_HDMV/PGS
Codec ID/Info                            : Picture based subtitle format used on BDs/HD-DVDs
Duration                                 : 1 h 44 min
Bit rate                                 : 43.1 kb/s
Count of elements                        : 2866
Stream size                              : 32.1 MiB (0%)
Title                                    : Spanish (Latin American)
Language                                 : Spanish
Default                                  : No
Forced                                   : No

Menu
00:00:00.000                             : en:Chapter 1
00:07:15.434                             : en:Chapter 2
00:16:01.043                             : en:Chapter 3
00:21:14.815                             : en:Chapter 4
00:28:08.436                             : en:Chapter 5
00:35:35.925                             : en:Chapter 6
00:43:02.621                             : en:Chapter 7
00:48:11.805                             : en:Chapter 8
00:57:37.370                             : en:Chapter 9
01:04:27.113                             : en:Chapter 10
01:10:47.076                             : en:Chapter 11
01:21:40.645                             : en:Chapter 12
01:27:01.924                             : en:Chapter 13
01:33:14.171                             : en:Chapter 14
01:41:41.303                             : en:Chapter 15
01:46:58.411                             : en:Chapter 16

Скриншоты:



Все одноименные релизы в Клубе

Время раздачи: с 13:00 до 23:00
[NNMClub.to]_Indignation.2016.BluRay.1080p.DTS-HD.MA.5.1.AVC.REMUX-FraMeSToR.mkv.torrent
 Торрент: Золотая раздача  Зарегистрирован
 
Примагнититься
Free Leech
Зарегистрируйтесь и скачайте торрент!
82 KB
 Зарегистрирован:   30 Окт 2016 23:22:25
 Размер:   16,3 GB  (
 Рейтинг:    (Голосов: 7)
 Поблагодарили:   35
 Проверка:   Оформление проверено модератором 30 Окт 2016 23:23:46
Как cкачать  ·  Как раздать  ·  Правильно оформить  ·  Поднять ратио!  
Показать сообщения:   
Начать новую тему   Ответить на тему    Торрент-трекер NNM-Club -> Зарубежное кино -> Фильмы в оригинале (HD) Часовой пояс: GMT + 3
Страница 1 из 1