Интеллигентный торрент-трекер
canvas not supported
Нас вместе: 4 108 050

Миссия: Неадекватна / Army of One (2016) BDRemux [H.264/1080p] [EN / EN, Sp Sub]


 
 
RSS
Начать новую тему   Ответить на тему    Торрент-трекер NNM-Club -> Зарубежное кино -> Фильмы в оригинале (HD)
Автор Сообщение
smaster67 ®
Модератор Видео
Покровитель талантов Uploader 300+
Стаж: 7 лет 5 мес.
Сообщений: 6265
Ratio: 180,412
Поблагодарили: 174067
100%
Миссия: Неадекватна / Army of One (2016) BDRemux [H.264/1080p] [EN / EN, Sp Sub]

Производство: США
Жанр: комедия

Режиссер: Ларри Чарльз
Актеры: Николас Кейдж, Дэнис О’Хэр, Венди МакЛендон-Кови, Рэйн Уилсон, Расселл Брэнд, Фиона Врум, Уилл Сассо, Пол Шеер, Хилари Джардин, Адриан Мартинес, Тоби Харгрейв, Грэм Даффи

Описание:
Главный герой фильма - безработный бывший заключенный. К нему является Бог и просит отправиться в Пакистан - найти и убить Осаму бин Ладена.



Продолжительность: 01:32:38
Качество видео: BDRemux
Перевод: Отсутствует
Язык озвучки: Английский
Язык субтитров: английский, испанский
Вид субтитров: Вшитые

Видео: AVC, 1920x1080 (16:9), 22387 kbps, 23,976 fps, 0,450 bpp
Аудио: английский / DTS-HD / 5.1 / 48 kHz / 3548 kbps / 24 bit (Core: 5.1 / 48 kHz / 1509 kbps / 24 bit)
Код: выделить все
General
Unique ID
Complete name                           Army.of.One.2016.BluRay.1080p.DTS-HD.MA.5.1.AVC.REMUX-FraMeSToR\Army.of.One.2016.BluRay.1080p.DTS-HD.MA.5.1.AVC.REMUX-FraMeSToR.mkv
Format                                   : Matroska
Format version                           : Version 4 / Version 2
File size                                : 16.9 GiB
Duration                                 : 1 h 32 min
Overall bit rate mode                    : Variable
Overall bit rate                         : 26.0 Mb/s
Movie name                               : Army of One
Encoded date                             : UTC 2016-10-30 07:59:09
Writing application                      : mkvmerge v9.5.0 ('Quiet Fire') 64bit
Writing library                          : libebml v1.3.4 + libmatroska v1.4.5

Video
ID                                       : 1
Format                                   : AVC
Format/Info                              : Advanced Video Codec
Format profile                           : High@L4.1
Format settings, CABAC                   : Yes
Format settings, ReFrames                : 4 frames
Format settings, GOP                     : M=3, N=24
Codec ID                                 : V_MPEG4/ISO/AVC
Duration                                 : 1 h 32 min
Bit rate mode                            : Variable
Bit rate                                 : 22.4 Mb/s
Maximum bit rate                         : 35.0 Mb/s
Width                                    : 1 920 pixels
Height                                   : 1 080 pixels
Display aspect ratio                     : 16:9
Frame rate mode                          : Constant
Frame rate                               : 23.976 (24000/1001) FPS
Standard                                 : NTSC
Color space                              : YUV
Chroma subsampling                       : 4:2:0
Bit depth                                : 8 bits
Scan type                                : Progressive
Bits/(Pixel*Frame)                       : 0.450
Stream size                              : 14.5 GiB (86%)
Default                                  : Yes
Forced                                   : No
Color range                              : Limited
Color primaries                          : BT.709
Transfer characteristics                 : BT.709
Matrix coefficients                      : BT.709

Audio
ID                                       : 2
Format                                   : DTS
Format/Info                              : Digital Theater Systems
Format profile                           : MA / Core
Mode                                     : 16
Format settings, Endianness              : Big
Codec ID                                 : A_DTS
Duration                                 : 1 h 32 min
Bit rate mode                            : Variable / Constant
Bit rate                                 : 3 548 kb/s / 1 509 kb/s
Channel(s)                               : 6 channels
Channel positions                        : Front: L C R, Side: L R, LFE
Sampling rate                            : 48.0 kHz
Frame rate                               : 93.750 FPS (512 spf)
Bit depth                                : 24 bits
Compression mode                         : Lossless / Lossy
Stream size                              : 2.30 GiB (14%)
Title                                    : DTS-HD MA 5.1
Language                                 : English
Default                                  : Yes
Forced                                   : No

Text #1
ID                                       : 3
Format                                   : PGS
Codec ID                                 : S_HDMV/PGS
Codec ID/Info                            : Picture based subtitle format used on BDs/HD-DVDs
Duration                                 : 1 h 32 min
Bit rate                                 : 60.0 kb/s
Count of elements                        : 4294
Stream size                              : 39.5 MiB (0%)
Title                                    : English (SDH)
Language                                 : English
Default                                  : Yes
Forced                                   : No

Text #2
ID                                       : 4
Format                                   : PGS
Codec ID                                 : S_HDMV/PGS
Codec ID/Info                            : Picture based subtitle format used on BDs/HD-DVDs
Duration                                 : 1 h 27 min
Bit rate                                 : 52.9 kb/s
Count of elements                        : 2736
Stream size                              : 33.2 MiB (0%)
Title                                    : Spanish (Latin American)
Language                                 : Spanish
Default                                  : No
Forced                                   : No

Menu
00:00:00.000                             : en:Chapter 1
00:05:22.697                             : en:Chapter 2
00:10:24.332                             : en:Chapter 3
00:18:19.973                             : en:Chapter 4
00:24:16.663                             : en:Chapter 5
00:31:13.329                             : en:Chapter 6
00:36:37.653                             : en:Chapter 7
00:45:30.352                             : en:Chapter 8
00:50:30.652                             : en:Chapter 9
00:56:58.164                             : en:Chapter 10
01:02:09.809                             : en:Chapter 11
01:07:41.891                             : en:Chapter 12
01:12:15.831                             : en:Chapter 13
01:15:46.833                             : en:Chapter 14
01:20:55.058                             : en:Chapter 15
01:26:06.035                             : en:Chapter 16

Скриншоты:



Все одноименные релизы в Клубе

Время раздачи: с 13:00 до 23:00
[NNMClub.to]_Army.of.One.2016.BluRay.1080p.DTS-HD.MA.5.1.AVC.REMUX-FraMeSToR.mkv.torrent
 Торрент: Золотая раздача  Зарегистрирован
 
Примагнититься
Free Leech
Зарегистрируйтесь и скачайте торрент!
84,5 KB
 Зарегистрирован:   31 Окт 2016 15:22:05
 Размер:   16,9 GB  (
 Рейтинг:    (Голосов: 8)
 Поблагодарили:   48
 Проверка:   Оформление проверено модератором 31 Окт 2016 15:23:42
Как cкачать  ·  Как раздать  ·  Правильно оформить  ·  Поднять ратио!  
Показать сообщения:   
Начать новую тему   Ответить на тему    Торрент-трекер NNM-Club -> Зарубежное кино -> Фильмы в оригинале (HD) Часовой пояс: GMT + 3
Страница 1 из 1