Интеллигентный торрент-трекер
canvas not supported
Нас вместе: 4 111 559

Искусственный интеллект. Доступ неограничен / I.T. (2016) BDRemux [H.264/1080p] [EN / EN, Sp Sub]


 
 
RSS
Начать новую тему   Ответить на тему    Торрент-трекер NNM-Club -> Зарубежное кино -> Фильмы в оригинале (HD)
Автор Сообщение
smaster67 ®
Модератор Видео
Покровитель талантов Uploader 300+
Стаж: 7 лет 5 мес.
Сообщений: 6271
Ratio: 180,678
Поблагодарили: 174280
100%
Искусственный интеллект. Доступ неограничен / I.T. (2016) BDRemux [H.264/1080p] [EN / EN, Sp Sub]

Производство: Ирландия, Франция, Дания
Жанр: триллер, драма, криминал, детектив

Режиссер: Джон Мур
Актеры: Пирс Броснан, Джейсон Бэрри, Карен Москоу, Кай Риссдал, Брайн Малвей, Мартин Хайнди, Рико Хисон, Анна Фрил, Стефани Скотт, Майкл Лысак, Клэр-Хоуп Эшити, Винсент Мерфи

Описание:
Вся жизнь Майка Ригана и его семьи построена на последних достижениях искусственного интеллекта и высоких технологий, а его «умный» дом - настоящее произведение технического искусства. Когда Майк пытается прекратить зашедшие слишком далеко отношения своего IT-специалиста Эда с юной дочерью, жизнь Ригана и его семьи оказываются под угрозой. Они попадают в ловушку созданных Риганом «умных технологий», которыми теперь управляет безумный гений Эд, вовлекая Ригана в опасную и непредсказуемую игру.



Продолжительность: 01:35:36
Качество видео: BDRemux
Перевод: Отсутствует
Язык озвучки: Английский
Язык субтитров: английский, испанский
Вид субтитров: Вшитые

Видео: AVC, 1920x1080 (16:9), 19833 kbps, 23,976 fps, 0,399 bpp
Аудио: английский / DTS-HD / 5.1 / 48 kHz / 3589 kbps / 24 bit (Core: 5.1 / 48 kHz / 1509 kbps / 24 bit)
Код: выделить все
General
Unique ID                               I.T.2016.REMUX.1080p.BluRay.AVC.DTS-HD.MA5.1-iFT\I.T.2016.REMUX.1080p.BluRay.AVC.DTS-HD.MA5.1-iFT.mkv
Format                                   : Matroska
Format version                           : Version 4 / Version 2
File size                                : 15.7 GiB
Duration                                 : 1 h 35 min
Overall bit rate mode                    : Variable
Overall bit rate                         : 23.5 Mb/s
Movie name                               : I.T.
Encoded date                             : UTC 2016-11-01 10:25:17
Writing application                      : mkvmerge v9.4.2 ('So High') 64bit
Writing library                          : libebml v1.3.4 + libmatroska v1.4.5

Video
ID                                       : 1
Format                                   : AVC
Format/Info                              : Advanced Video Codec
Format profile                           : High@L4.1
Format settings, CABAC                   : Yes
Format settings, ReFrames                : 4 frames
Codec ID                                 : V_MPEG4/ISO/AVC
Duration                                 : 1 h 35 min
Bit rate mode                            : Variable
Bit rate                                 : 19.8 Mb/s
Maximum bit rate                         : 39.0 Mb/s
Width                                    : 1 920 pixels
Height                                   : 1 080 pixels
Display aspect ratio                     : 16:9
Frame rate mode                          : Constant
Frame rate                               : 23.976 (24000/1001) FPS
Color space                              : YUV
Chroma subsampling                       : 4:2:0
Bit depth                                : 8 bits
Scan type                                : Progressive
Bits/(Pixel*Frame)                       : 0.399
Stream size                              : 13.2 GiB (84%)
Language                                 : English
Default                                  : No
Forced                                   : No

Audio
ID                                       : 2
Format                                   : DTS
Format/Info                              : Digital Theater Systems
Format profile                           : MA / Core
Mode                                     : 16
Format settings, Endianness              : Big
Codec ID                                 : A_DTS
Duration                                 : 1 h 35 min
Bit rate mode                            : Variable / Constant
Bit rate                                 : 3 590 kb/s / 1 509 kb/s
Channel(s)                               : 6 channels
Channel positions                        : Front: L C R, Side: L R, LFE
Sampling rate                            : 48.0 kHz
Frame rate                               : 93.750 FPS (512 spf)
Bit depth                                : 24 bits
Compression mode                         : Lossless / Lossy
Stream size                              : 2.40 GiB (15%)
Title                                    : Surround 5.1
Language                                 : English
Default                                  : Yes
Forced                                   : No

Text #1
ID                                       : 3
Format                                   : PGS
Muxing mode                              : zlib
Codec ID                                 : S_HDMV/PGS
Codec ID/Info                            : Picture based subtitle format used on BDs/HD-DVDs
Duration                                 : 1 h 30 min
Bit rate                                 : 27.2 kb/s
Count of elements                        : 2428
Stream size                              : 17.6 MiB (0%)
Language                                 : English
Default                                  : No
Forced                                   : No

Text #2
ID                                       : 4
Format                                   : PGS
Muxing mode                              : zlib
Codec ID                                 : S_HDMV/PGS
Codec ID/Info                            : Picture based subtitle format used on BDs/HD-DVDs
Duration                                 : 1 h 30 min
Bit rate                                 : 22.4 kb/s
Count of elements                        : 2204
Stream size                              : 14.5 MiB (0%)
Language                                 : Spanish
Default                                  : No
Forced                                   : No

Menu
00:00:00.000                             : en:Chapter 00
00:09:51.757                             : en:Chapter 01
00:20:06.914                             : en:Chapter 02
00:29:40.653                             : en:Chapter 03
00:41:51.717                             : en:Chapter 04
00:52:15.048                             : en:Chapter 05
01:00:51.022                             : en:Chapter 06
01:14:15.909                             : en:Chapter 07
01:22:18.683                             : en:Chapter 08
01:32:00.431                             : en:Chapter 09

Скриншоты:



Все одноименные релизы в Клубе

Время раздачи: с 13:00 до 23:00
[NNMClub.to]_I.T.2016.REMUX.1080p.BluRay.AVC.DTS-HD.MA5.1-iFT.mkv.torrent
 Торрент: Золотая раздача  Зарегистрирован
 
Примагнититься
Free Leech
Зарегистрируйтесь и скачайте торрент!
78,6 KB
 Зарегистрирован:   01 Ноя 2016 17:35:12
 Размер:   15,7 GB  (
 Рейтинг:    (Голосов: 3)
 Поблагодарили:   26
 Проверка:   Оформление проверено модератором 01 Ноя 2016 17:35:41
Как cкачать  ·  Как раздать  ·  Правильно оформить  ·  Поднять ратио!  
XALIAVA
Стаж: 3 года
Сообщений: 11
Ratio: 7,798
1.56%
russia.gif
разложившийся помет морских птиц и летучих мышей, применяемый как азотное и фосфорное удобрение... на 20 минуте вырубил
Показать сообщения:   
Начать новую тему   Ответить на тему    Торрент-трекер NNM-Club -> Зарубежное кино -> Фильмы в оригинале (HD) Часовой пояс: GMT + 3
Страница 1 из 1