Интеллигентный торрент-трекер
canvas not supported
Нас вместе: 4 112 014

Восставшие мертвецы: конец игры / Dead Rising: Endgame (2016) BDRip [H.264/1080p] [EN]


 
 
RSS
Начать новую тему   Ответить на тему    Торрент-трекер NNM-Club -> Зарубежное кино -> Фильмы в оригинале (HD)
Автор Сообщение
smaster67 ®
Модератор Видео
Покровитель талантов Uploader 300+
Стаж: 7 лет 5 мес.
Сообщений: 6275
Ratio: 180,771
Поблагодарили: 174365
100%
Восставшие мертвецы: конец игры / Dead Rising: Endgame (2016) BDRip [H.264/1080p] [EN]

Производство: США
Жанр: ужасы, боевик

Режиссер: Пэт Уильямс
Актеры: Джесси Меткалф, Киган Коннор Трейси, Джессика Хэрмон, Деннис Хейсбёрт, Мари Авгеропулос, Тич Грант, Дакота Гуппи, Наоми Кайл, Стивен Лобо, Кертис Льюм, Ли Мадждуб, Лувия Петерсен

Описание:
Журналист Чейз Картер снова выясняет интересные подробности о зомби-вирусе и правительстве.



Продолжительность: 01:36:02
Качество видео: BDRip 1080p
Перевод: Отсутствует
Язык озвучки: Английский

Видео: AVC, 1920x800 (2.40:1), 12263 kbps, 23,976 fps, 0,333 bpp
Аудио: английский / DTS / 5.1 / 48 kHz / 768 kbps / 24 bit
Код: выделить все
General
Unique ID                                Dead.Rising.Endgame.2016.1080p.mkv
Format                                   : Matroska
Format version                           : Version 4 / Version 2
File size                                : 8.74 GiB
Duration                                 : 1 h 36 min
Overall bit rate                         : 13.0 Mb/s
Encoded date                             : UTC 2016-11-01 09:03:55
Writing application                      : mkvmerge v9.5.0 ('Quiet Fire') 64bit
Writing library                          : libebml v1.3.4 + libmatroska v1.4.5

Video
ID                                       : 1
Format                                   : AVC
Format/Info                              : Advanced Video Codec
Format profile                           : High@L4.1
Format settings, CABAC                   : Yes
Format settings, ReFrames                : 5 frames
Codec ID                                 : V_MPEG4/ISO/AVC
Duration                                 : 1 h 36 min
Bit rate                                 : 12.3 Mb/s
Width                                    : 1 920 pixels
Height                                   : 800 pixels
Display aspect ratio                     : 2.40:1
Frame rate mode                          : Constant
Frame rate                               : 23.976 (24000/1001) FPS
Color space                              : YUV
Chroma subsampling                       : 4:2:0
Bit depth                                : 8 bits
Scan type                                : Progressive
Bits/(Pixel*Frame)                       : 0.333
Stream size                              : 8.23 GiB (94%)
Writing library                          : x264 core 148 r2721 72d53ab
Encoding settings                        : cabac=1 / ref=5 / deblock=1:0:0 / analyse=0x3:0x113 / me=umh / subme=8 / psy=1 / psy_rd=1.00:0.00 / mixed_ref=1 / me_range=16 / chroma_me=1 / trellis=2 / 8x8dct=1 / cqm=0 / deadzone=21,11 / fast_pskip=1 / chroma_qp_offset=-2 / threads=18 / lookahead_threads=3 / sliced_threads=0 / nr=0 / decimate=1 / interlaced=0 / bluray_compat=0 / constrained_intra=0 / bframes=3 / b_pyramid=2 / b_adapt=1 / b_bias=0 / direct=3 / weightb=1 / open_gop=0 / weightp=2 / keyint=240 / keyint_min=23 / scenecut=40 / intra_refresh=0 / rc_lookahead=50 / rc=2pass / mbtree=1 / bitrate=12263 / ratetol=1.0 / qcomp=0.60 / qpmin=0 / qpmax=69 / qpstep=4 / cplxblur=20.0 / qblur=0.5 / vbv_maxrate=62500 / vbv_bufsize=78125 / nal_hrd=none / filler=0 / ip_ratio=1.40 / aq=1:1.00
Default                                  : Yes
Forced                                   : No

Audio
ID                                       : 2
Format                                   : DTS
Format/Info                              : Digital Theater Systems
Mode                                     : 16
Format settings, Endianness              : Big
Codec ID                                 : A_DTS
Duration                                 : 1 h 36 min
Bit rate mode                            : Constant
Bit rate                                 : 768 kb/s
Channel(s)                               : 6 channels
Channel positions                        : Front: L C R, Side: L R, LFE
Sampling rate                            : 48.0 kHz
Frame rate                               : 93.750 FPS (512 spf)
Bit depth                                : 24 bits
Compression mode                         : Lossy
Stream size                              : 528 MiB (6%)
Language                                 : English
Default                                  : Yes
Forced                                   : No

Menu
00:00:00.000                             : :Chapter 01
00:08:13.034                             : :Chapter 02
00:15:14.663                             : :Chapter 03
00:22:38.023                             : :Chapter 04
00:30:02.175                             : :Chapter 05
00:38:35.354                             : :Chapter 06
00:47:39.481                             : :Chapter 07
00:53:04.931                             : :Chapter 08
01:02:03.970                             : :Chapter 09
01:08:57.591                             : :Chapter 10
01:17:30.020                             : :Chapter 11
01:25:55.984                             : :Chapter 12

Скриншоты:



Все одноименные релизы в Клубе

Время раздачи: с 13:00 до 23:00
[NNMClub.to]_Dead.Rising.Endgame.2016.1080p.mkv.torrent
 Торрент: Золотая раздача  Зарегистрирован
 
Примагнититься
Free Leech
Зарегистрируйтесь и скачайте торрент!
43,9 KB
 Зарегистрирован:   01 Ноя 2016 18:25:36
 Размер:   8,74 GB  (
 Рейтинг:    (Голосов: 6)
 Поблагодарили:   37
 Проверка:   Оформление проверено модератором 01 Ноя 2016 18:26:27
Как cкачать  ·  Как раздать  ·  Правильно оформить  ·  Поднять ратио!  
Показать сообщения:   
Начать новую тему   Ответить на тему    Торрент-трекер NNM-Club -> Зарубежное кино -> Фильмы в оригинале (HD) Часовой пояс: GMT + 3
Страница 1 из 1