Интеллигентный торрент-трекер
canvas not supported
Нас вместе: 4 109 265

Каменные кулаки / Hands of Stone (2016) BDRip [H.264/720p] [EN / EN Sub]


 
 
RSS
Начать новую тему   Ответить на тему    Торрент-трекер NNM-Club -> Зарубежное кино -> Фильмы в оригинале (HD)
Автор Сообщение
smaster67 ®
Модератор Видео
Покровитель талантов Uploader 300+
Стаж: 7 лет 5 мес.
Сообщений: 6266
Ratio: 180,498
Поблагодарили: 174102
100%
Каменные кулаки / Hands of Stone (2016) BDRip [H.264/720p] [EN / EN Sub]

Производство: Панама, США
Жанр: боевик, драма, биография, спорт

Режиссер: Хонатан Якубович
Актеры: Эдгар Рамирес, Роберт Де Ниро, Ашер Рэймонд, Рубен Бладес, Ана де Армас, Педро Перез, Рег Э. Кэти, Джон Туртурро, Эллен Баркин, Оскар Хаэнада, Джерни Смоллетт

Описание:
Картина расскажет о легендарном боксёре в лёгком весе Роберто «Каменные кулаки» Дюране. В фильме будет уделено внимание как личной жизни Дюрана, так и его карьере - в частности, боям с легендарным Шугаром Рэем Леонардом.



Продолжительность: 01:51:08
Качество видео: BDRip 720p
Перевод: Отсутствует
Язык озвучки: Английский
Язык субтитров: английский
Вид субтитров: Вшитые (Форсированные на испанскую речь)

Видео: AVC, 1280x536 (2.40:1), 5529 kbps, 23,976 fps, 0,336 bpp
Аудио: английский / DTS / 5.1 / 48 kHz / 1509 kbps / 24 bit
Код: выделить все
General
Unique ID                               Hands.of.Stone.2016.720p.mkv
Format                                   : Matroska
Format version                           : Version 4 / Version 2
File size                                : 5.47 GiB
Duration                                 : 1 h 51 min
Overall bit rate                         : 7 041 kb/s
Encoded date                             : UTC 2016-11-01 23:16:33
Writing application                      : mkvmerge v8.3.0 ('Over the Horizon') 64bit
Writing library                          : libebml v1.3.1 + libmatroska v1.4.2

Video
ID                                       : 1
Format                                   : AVC
Format/Info                              : Advanced Video Codec
Format profile                           : High@L4.1
Format settings, CABAC                   : Yes
Format settings, ReFrames                : 5 frames
Codec ID                                 : V_MPEG4/ISO/AVC
Duration                                 : 1 h 51 min
Bit rate                                 : 5 529 kb/s
Width                                    : 1 280 pixels
Height                                   : 536 pixels
Display aspect ratio                     : 2.40:1
Frame rate mode                          : Constant
Frame rate                               : 23.976 FPS
Color space                              : YUV
Chroma subsampling                       : 4:2:0
Bit depth                                : 8 bits
Scan type                                : Progressive
Bits/(Pixel*Frame)                       : 0.336
Stream size                              : 4.29 GiB (79%)
Writing library                          : x264 core 148 r2705 3f5ed56
Encoding settings                        : cabac=1 / ref=5 / deblock=1:0:0 / analyse=0x3:0x133 / me=umh / subme=7 / psy=1 / psy_rd=1.00:0.00 / mixed_ref=1 / me_range=16 / chroma_me=1 / trellis=1 / 8x8dct=1 / cqm=0 / deadzone=21,11 / fast_pskip=0 / chroma_qp_offset=-2 / threads=17 / lookahead_threads=2 / sliced_threads=0 / nr=0 / decimate=1 / interlaced=0 / bluray_compat=0 / constrained_intra=0 / bframes=3 / b_pyramid=2 / b_adapt=1 / b_bias=0 / direct=1 / weightb=1 / open_gop=0 / weightp=2 / keyint=250 / keyint_min=23 / scenecut=40 / intra_refresh=0 / rc_lookahead=40 / rc=2pass / mbtree=1 / bitrate=5529 / ratetol=1.0 / qcomp=0.60 / qpmin=0 / qpmax=69 / qpstep=4 / cplxblur=20.0 / qblur=0.5 / ip_ratio=1.40 / aq=1:1.00
Language                                 : English
Default                                  : Yes
Forced                                   : No

Audio
ID                                       : 2
Format                                   : DTS
Format/Info                              : Digital Theater Systems
Mode                                     : 16
Format settings, Endianness              : Big
Codec ID                                 : A_DTS
Duration                                 : 1 h 51 min
Bit rate mode                            : Constant
Bit rate                                 : 1 509 kb/s
Channel(s)                               : 6 channels
Channel positions                        : Front: L C R, Side: L R, LFE
Sampling rate                            : 48.0 kHz
Frame rate                               : 93.750 FPS (512 spf)
Bit depth                                : 24 bits
Compression mode                         : Lossy
Stream size                              : 1.17 GiB (21%)
Language                                 : English
Default                                  : Yes
Forced                                   : No

Text
ID                                       : 3
Format                                   : UTF-8
Codec ID                                 : S_TEXT/UTF8
Codec ID/Info                            : UTF-8 Plain Text
Duration                                 : 1 h 38 min
Bit rate                                 : 12 b/s
Count of elements                        : 374
Stream size                              : 8.91 KiB (0%)
Title                                    : English-Forced
Language                                 : English
Default                                  : Yes
Forced                                   : Yes

Menu
00:00:00.000                             : en:00:00:00.000
00:05:23.073                             : en:00:05:23.073
00:12:31.668                             : en:00:12:31.668
00:19:06.896                             : en:00:19:06.896
00:26:24.958                             : en:00:26:24.958
00:33:53.823                             : en:00:33:53.823
00:40:00.273                             : en:00:40:00.273
00:46:04.095                             : en:00:46:04.095
00:53:55.774                             : en:00:53:55.774
01:00:27.749                             : en:01:00:27.749
01:08:30.315                             : en:01:08:30.315
01:15:10.047                             : en:01:15:10.047
01:23:40.724                             : en:01:23:40.724
01:31:02.248                             : en:01:31:02.248
01:36:13.559                             : en:01:36:13.559
01:43:20.152                             : en:01:43:20.152

Скриншоты:



Все одноименные релизы в Клубе

Время раздачи: с 13:00 до 23:00
[NNMClub.to]_Hands.of.Stone.2016.720p.mkv.torrent
 Торрент: Серебряная раздча  Зарегистрирован
 
Примагнититься
Free Leech
Зарегистрируйтесь и скачайте торрент!
27,5 KB
 Зарегистрирован:   02 Ноя 2016 10:15:13
 Размер:   5,47 GB  (
 Рейтинг:   5 (Голосов: 10)
 Поблагодарили:   56
 Проверка:   Оформление проверено модератором 02 Ноя 2016 10:19:03
Как cкачать  ·  Как раздать  ·  Правильно оформить  ·  Поднять ратио!  
frucktolol
Стаж: 1 год 2 мес.
Сообщений: 39
Ratio: 0,109
38.79%
smaster67
Привет дружище.Когда перевод будет,долго ждать?
ZeePRO
Стаж: 9 лет 8 мес.
Сообщений: 257
Ratio: 5,943
Раздал: 34,29 TB
Поблагодарили: 5
10.94%
Откуда: Москва
russia.gif
Враньё про рейтинг

_________________
Всё, что нас убивает, делает нас мертвее.
100 Mbps 100 Mbps 24/7
Win7x64 - Asus P8Z77-V Deluxe - Intel Core i7 2700K - 4x4Gb Corsair RAM - GIGABYTE R9 290 - [sys] 2x60GB Corsair SSD RAID0 + 2x150GB WD VelociRaptor RAID0 + 2x250GB Seagate RAID1 + 2x4TB Seagate + 3TB WD + 2TB WD + 2x1TB Seagate + 1,5TB Seagate
Показать сообщения:   
Начать новую тему   Ответить на тему    Торрент-трекер NNM-Club -> Зарубежное кино -> Фильмы в оригинале (HD) Часовой пояс: GMT + 3
Страница 1 из 1