Интеллигентный торрент-трекер
canvas not supported
Нас вместе: 4 110 306

Восставшие мертвецы: конец игры / Dead Rising: Endgame (2016) BDRemux [H.264/1080p] [EN]


 
 
RSS
Начать новую тему   Ответить на тему    Торрент-трекер NNM-Club -> Зарубежное кино -> Фильмы в оригинале (HD)
Автор Сообщение
smaster67 ®
Модератор Видео
Покровитель талантов Uploader 300+
Стаж: 7 лет 5 мес.
Сообщений: 6270
Ratio: 180,611
Поблагодарили: 174231
100%
Восставшие мертвецы: конец игры / Dead Rising: Endgame (2016) BDRemux [H.264/1080p] [EN]

Производство: США
Жанр: ужасы, боевик

Режиссер: Пэт Уильямс
Актеры: Джесси Меткалф, Киган Коннор Трейси, Джессика Хэрмон, Деннис Хейсбёрт, Мари Авгеропулос, Тич Грант, Дакота Гуппи, Наоми Кайл, Стивен Лобо, Кертис Льюм, Ли Мадждуб, Лувия Петерсен

Описание:
Журналист Чейз Картер снова выясняет интересные подробности о зомби-вирусе и правительстве.



Продолжительность: 01:49:35
Качество видео: BDRemux
Перевод: Отсутствует
Язык озвучки: Английский

Видео: AVC, 1920x1080 (16:9), 24886 kbps, 23,976 fps, 0,501 bpp
Аудио: английский / DTS-HD / 5.1 / 48 kHz / 3651 kbps / 24 bit (Core: 5.1 / 48 kHz / 768 kbps / 24 bit)
Код: выделить все
General
Unique ID
Complete name                          Dead.Rising.Endgame.2016.BluRay.1080p.DTS-HD.MA.5.1.AVC.REMUX-FraMeSToR\Dead.Rising.Endgame.2016.BluRay.1080p.DTS-HD.MA.5.1.AVC.REMUX-FraMeSToR.mkv
Format                                   : Matroska
Format version                           : Version 4 / Version 2
File size                                : 21.8 GiB
Duration                                 : 1 h 49 min
Overall bit rate mode                    : Variable
Overall bit rate                         : 28.5 Mb/s
Movie name                               : Dead Rising: Endgame
Encoded date                             : UTC 2016-11-01 16:51:10
Writing application                      : mkvmerge v9.5.0 ('Quiet Fire') 64bit
Writing library                          : libebml v1.3.4 + libmatroska v1.4.5

Video
ID                                       : 1
Format                                   : AVC
Format/Info                              : Advanced Video Codec
Format profile                           : High@L4.1
Format settings, CABAC                   : Yes
Format settings, ReFrames                : 3 frames
Format settings, GOP                     : M=4, N=24
Codec ID                                 : V_MPEG4/ISO/AVC
Duration                                 : 1 h 49 min
Bit rate mode                            : Variable
Bit rate                                 : 24.9 Mb/s
Maximum bit rate                         : 35.0 Mb/s
Width                                    : 1 920 pixels
Height                                   : 1 080 pixels
Display aspect ratio                     : 16:9
Frame rate mode                          : Constant
Frame rate                               : 23.976 (24000/1001) FPS
Standard                                 : NTSC
Color space                              : YUV
Chroma subsampling                       : 4:2:0
Bit depth                                : 8 bits
Scan type                                : Progressive
Bits/(Pixel*Frame)                       : 0.501
Stream size                              : 19.0 GiB (87%)
Default                                  : Yes
Forced                                   : No
Color range                              : Limited
Color primaries                          : BT.709
Transfer characteristics                 : BT.709
Matrix coefficients                      : BT.709

Audio
ID                                       : 2
Format                                   : DTS
Format/Info                              : Digital Theater Systems
Format profile                           : MA / Core
Mode                                     : 16
Format settings, Endianness              : Big
Codec ID                                 : A_DTS
Duration                                 : 1 h 47 min
Bit rate mode                            : Variable / Constant
Bit rate                                 : 3 652 kb/s / 768 kb/s
Channel(s)                               : 6 channels
Channel positions                        : Front: L C R, Side: L R, LFE
Sampling rate                            : 48.0 kHz
Frame rate                               : 93.750 FPS (512 spf)
Bit depth                                : 24 bits
Compression mode                         : Lossless / Lossy
Stream size                              : 2.74 GiB (13%)
Title                                    : DTS-HD MA 5.1
Language                                 : English
Default                                  : Yes
Forced                                   : No

Menu
00:00:00.000                             : en:Chapter 1
00:08:13.034                             : en:Chapter 2
00:15:14.663                             : en:Chapter 3
00:22:38.023                             : en:Chapter 4
00:30:02.175                             : en:Chapter 5
00:38:35.354                             : en:Chapter 6
00:47:39.481                             : en:Chapter 7
00:53:04.931                             : en:Chapter 8
01:02:03.970                             : en:Chapter 9
01:08:57.591                             : en:Chapter 10
01:17:30.020                             : en:Chapter 11
01:25:55.984                             : en:Chapter 12

Скриншоты:



Все одноименные релизы в Клубе

Время раздачи: с 13:00 до 23:00
[NNMClub.to]_Dead.Rising.Endgame.2016.BluRay.1080p.DTS-HD.MA.5.1.AVC.REMUX-FraMeSToR.mkv.torrent
 Торрент: Золотая раздача  Зарегистрирован
 
Примагнититься
Free Leech
Зарегистрируйтесь и скачайте торрент!
109 KB
 Зарегистрирован:   02 Ноя 2016 18:06:25
 Размер:   21,8 GB  (
 Рейтинг:   4,5 (Голосов: 10)
 Поблагодарили:   42
 Проверка:   Оформление проверено модератором 02 Ноя 2016 18:07:01
Как cкачать  ·  Как раздать  ·  Правильно оформить  ·  Поднять ратио!  
Показать сообщения:   
Начать новую тему   Ответить на тему    Торрент-трекер NNM-Club -> Зарубежное кино -> Фильмы в оригинале (HD) Часовой пояс: GMT + 3
Страница 1 из 1