Интеллигентный торрент-трекер
canvas not supported
Нас вместе: 4 100 958

Парк резни / Carnage Park (2016) BDRip [H.264/1080p] [EN]


 
 
RSS
Начать новую тему   Ответить на тему    Торрент-трекер NNM-Club -> Зарубежное кино -> Фильмы в оригинале (HD)
Автор Сообщение
smaster67 ®
Модератор Видео
Покровитель талантов Uploader 300+
Стаж: 7 лет 5 мес.
Сообщений: 6251
Ratio: 179,944
Поблагодарили: 173540
100%
Парк резни / Carnage Park (2016) BDRip [H.264/1080p] [EN]

Производство: США
Жанр: ужасы, боевик, триллер, криминал

Режиссер: Мики Китинг
Актеры: Эшли Белл, Пэт Хили, Джеймс Хеберт, Майкл Виллар, Боб Бэнкрофт, Ларри Фессенден, Энди Грин, Алан Рак, Грэхэм Скиппер, Дэрби Стэнчфилд

Описание:
Так уж повелось, что американские южные штаты - прибежище всякого рода психопатов. Вот один из них и обустроил себе там охотничьи угодья. Охотится он, разумеется, на людей.
Двое отчаянных парней ограбили банк и взяли заложницу. Но им повезло, они покинули этот мир достаточно быстро, а вот девушке придётся побегать.



Продолжительность: 01:20:54
Качество видео: BDRip 1080p
Перевод: Отсутствует
Язык озвучки: Английский

Видео: AVC, 1920x800 (2.40:1), 8160 kbps, 23,976 fps, 0,222 bpp
Аудио: английский / DTS / 5.1 / 48 kHz / 1509 kbps / 24 bit
Код: выделить все
General
Unique ID                               Carnage Park.2016.1080p.mkv
Format                                   : Matroska
Format version                           : Version 4 / Version 2
File size                                : 5.46 GiB
Duration                                 : 1 h 20 min
Overall bit rate                         : 9 668 kb/s
Encoded date                             : UTC 2016-11-02 03:08:57
Writing application                      : mkvmerge v8.6.1 ('Flying') 64bit
Writing library                          : libebml v1.3.3 + libmatroska v1.4.4

Video
ID                                       : 1
Format                                   : AVC
Format/Info                              : Advanced Video Codec
Format profile                           : High@L4.1
Format settings, CABAC                   : Yes
Format settings, ReFrames                : 5 frames
Codec ID                                 : V_MPEG4/ISO/AVC
Duration                                 : 1 h 20 min
Bit rate                                 : 8 160 kb/s
Width                                    : 1 920 pixels
Height                                   : 800 pixels
Display aspect ratio                     : 2.40:1
Frame rate mode                          : Constant
Frame rate                               : 23.976 FPS
Color space                              : YUV
Chroma subsampling                       : 4:2:0
Bit depth                                : 8 bits
Scan type                                : Progressive
Bits/(Pixel*Frame)                       : 0.222
Stream size                              : 4.61 GiB (84%)
Writing library                          : x264 core 148 r2705 3f5ed56
Encoding settings                        : cabac=1 / ref=5 / deblock=1:0:0 / analyse=0x3:0x133 / me=umh / subme=7 / psy=1 / psy_rd=1.00:0.00 / mixed_ref=1 / me_range=16 / chroma_me=1 / trellis=1 / 8x8dct=1 / cqm=0 / deadzone=21,11 / fast_pskip=0 / chroma_qp_offset=-2 / threads=12 / lookahead_threads=2 / sliced_threads=0 / nr=0 / decimate=1 / interlaced=0 / bluray_compat=0 / constrained_intra=0 / bframes=3 / b_pyramid=2 / b_adapt=2 / b_bias=0 / direct=3 / weightb=1 / open_gop=0 / weightp=2 / keyint=250 / keyint_min=23 / scenecut=40 / intra_refresh=0 / rc_lookahead=50 / rc=2pass / mbtree=1 / bitrate=8160 / ratetol=1.0 / qcomp=0.60 / qpmin=0 / qpmax=69 / qpstep=4 / cplxblur=20.0 / qblur=0.5 / ip_ratio=1.40 / aq=1:1.00
Language                                 : English
Default                                  : Yes
Forced                                   : No

Audio
ID                                       : 2
Format                                   : DTS
Format/Info                              : Digital Theater Systems
Mode                                     : 16
Format settings, Endianness              : Big
Codec ID                                 : A_DTS
Duration                                 : 1 h 20 min
Bit rate mode                            : Constant
Bit rate                                 : 1 509 kb/s
Channel(s)                               : 6 channels
Channel positions                        : Front: L C R, Side: L R, LFE
Sampling rate                            : 48.0 kHz
Frame rate                               : 93.750 FPS (512 spf)
Bit depth                                : 24 bits
Compression mode                         : Lossy
Stream size                              : 873 MiB (16%)
Language                                 : English
Default                                  : Yes
Forced                                   : No

Menu
00:00:00.000                             : en:00:00:00.000
00:05:48.014                             : en:00:05:48.014
00:12:37.256                             : en:00:12:37.256
00:19:12.485                             : en:00:19:12.485
00:25:56.555                             : en:00:25:56.555
00:31:25.717                             : en:00:31:25.717
00:39:05.426                             : en:00:39:05.426
00:45:20.051                             : en:00:45:20.051
00:50:51.548                             : en:00:50:51.548
00:56:48.614                             : en:00:56:48.614
01:02:32.582                             : en:01:02:32.582
01:10:02.073                             : en:01:10:02.073

Скриншоты:



Все одноименные релизы в Клубе

Время раздачи: с 13:00 до 23:00
[NNMClub.to]_Carnage Park.2016.1080p.mkv.torrent
 Торрент: Золотая раздача  Зарегистрирован
 
Примагнититься
Free Leech
Зарегистрируйтесь и скачайте торрент!
27,5 KB
 Зарегистрирован:   02 Ноя 2016 19:21:13
 Размер:   5,46 GB  (
 Рейтинг:    (Голосов: 3)
 Поблагодарили:   24
 Проверка:   Оформление проверено модератором 02 Ноя 2016 19:36:56
Как cкачать  ·  Как раздать  ·  Правильно оформить  ·  Поднять ратио!  
DeJekka
Стаж: 6 лет 1 мес.
Сообщений: 45
Ratio: 5,533
33.68%
russia.gif
Брр.....Судя по скринам..Фильмец-трЭш-трещище)))))
Cergei1010
Стаж: 7 лет 6 мес.
Сообщений: 134
Ratio: 4,556
0.2%
russia.gif
Вот она мерзопакостная америка во всей своей красе)))

_________________
Windows 7 Ultimate SP1 (x64), Блок питания: Corsair TX 850 W, Процессор: Intel(R) Core(TM) i7 CPU 950 @ 3.07GHz
Материнская плата: Gigabyte x58a-ud3r, Видео: Sapphire Radeon HD 7970 1000Mhz 6144Mb 6000Mhz 384 bit, Память: Corsair Vengeance 16 ГБ.
Показать сообщения:   
Начать новую тему   Ответить на тему    Торрент-трекер NNM-Club -> Зарубежное кино -> Фильмы в оригинале (HD) Часовой пояс: GMT + 3
Страница 1 из 1