Интеллигентный торрент-трекер
canvas not supported
Нас вместе: 4 112 139

Каменные кулаки / Hands of Stone (2016) HDRip


 
 
RSS
Начать новую тему   Ответить на тему    Торрент-трекер NNM-Club -> Горячие новинки -> Зарубежные Новинки (HD*Rip/LQ, DVDRip)
Автор Сообщение
den-ru801 ®
Стаж: 1 год 11 мес.
Сообщений: 540
Ratio: 677,393
Поблагодарили: 186231
100%
russia.gif
Каменные кулаки / Hands of Stone (2016) HDRip

Производство: Панама, США
Жанр: боевик, драма, биография, спорт

Режиссер: Хонатан Якубович
Актеры: Эдгар Рамирес, Роберт Де Ниро, Ашер Рэймонд, Рубен Бладес, Ана де Армас, Педро Перез, Рег Э. Кэти, Джон Туртурро, Эллен Баркин, Оскар Хаэнада, Джерни Смоллетт

Описание:
Картина расскажет о легендарном боксёре в лёгком весе Роберто «Каменные кулаки» Дюране. В фильме будет уделено внимание как личной жизни Дюрана, так и его карьере - в частности, боям с легендарным Шугаром Рэем Леонардом.


Рейтинг MPAA: R (лицам до 17 лет обязательно присутствие взрослого)
Дата мировой премьеры: 16 мая 2016

Продолжительность: 01:50:53
Качество видео: HDRip
Перевод: Многоголосый закадровый (Синема УС)
Субтитры: Отсутствуют
Реклама: Имеется реклама от спонсора показа!!!

Видео: Xvid, 720x304, ~1680 Kbps
Аудио: AC3, 2 ch, 192 Kbps
Код: выделить все
Общее
Полное имя                               : F:\Hands.of.Stone.2016.P.HDRip.NNM-CLUB.avi
Формат                                   : AVI
Формат/Информация                        : Audio Video Interleave
Размер файла                             : 1,46 Гбайт
Продолжительность                        : 1 ч. 50 м.
Общий поток                              : 1882 Кбит/сек
Программа кодирования                    : VirtualDubMod 1.5.10.2 (build 2540/release)
Библиотека кодирования                   : VirtualDubMod build 2540/release

Видео
Идентификатор                            : 0
Формат                                   : MPEG-4 Visual
Профиль формата                          : Advanced Simple@L5
Параметр BVOP формата                    : 2
Параметр QPel формата                    : Нет
Параметр GMC формата                     : Без точки перехода
Параметр матрицы формата                 : Выборочная
Идентификатор кодека                     : XVID
Идентификатор кодека/Подсказка           : XviD
Продолжительность                        : 1 ч. 50 м.
Битрейт                                  : 1680 Кбит/сек
Ширина                                   : 720 пикселей
Высота                                   : 304 пикселя
Соотношение сторон                       : 2,35:1
Частота кадров                           : 23,976 (24000/1001) кадра/сек
Цветовое пространство                    : YUV
Субдискретизация насыщенности            : 4:2:0
Битовая глубина                          : 8 бит
Тип развёртки                            : Прогрессивная
Метод сжатия                             : С потерями
Бит/(Пиксели*Кадры)                      : 0.320
Размер потока                            : 1,30 Гбайт (89%)
Библиотека кодирования                   : XviD 1.2.1 (UTC 2008-12-04)

Аудио
Идентификатор                            : 1
Формат                                   : AC-3
Формат/Информация                        : Audio Coding 3
Расширение режима                        : CM (complete main)
Параметр Endianness формата              : Big
Идентификатор кодека                     : 2000
Продолжительность                        : 1 ч. 50 м.
Вид битрейта                             : Постоянный
Битрейт                                  : 192 Кбит/сек
Каналы                                   : 2 канала
Расположение каналов                     : Front: L R
Частота                                  : 48,0 КГц
Частота кадров                           : 31,250 кадров/сек (1536 spf)
Метод сжатия                             : С потерями
Размер потока                            : 152 Мбайт (10%)
Выравнивание                             : Разделение по промежуткам
Продолжительность промежутка             : 42  мс. (1,00 видеокадр)
Время предзагрузки промежутка            : 500  мс.

Скриншоты:



Все одноименные релизы в Клубе

Время раздачи: 24/7 до 10 скачавших
[NNMClub.to]_Hands.of.Stone.2016.P.HDRip.NNM-CLUB.avi.torrent
 Торрент:   Зарегистрирован
 
Примагнититься
Free Leech
Зарегистрируйтесь и скачайте торрент!
15,1 KB
 Зарегистрирован:   03 Ноя 2016 18:21:59
 Размер:   1,46 GB  (
 Рейтинг:   4,7 (Голосов: 65)
 Поблагодарили:   417
 Проверка:   Оформление проверено модератором 03 Ноя 2016 21:31:38
Как cкачать  ·  Как раздать  ·  Правильно оформить  ·  Поднять ратио!  
mobius07
Стаж: 6 лет 3 мес.
Сообщений: 19
Ratio: 2,212
0.19%
cuba.gif
Режиссер: Хонатан Якубович
Ну вот после этого смотрю точно!!!!
sirion3
Стаж: 6 лет 4 мес.
Сообщений: 30
Ratio: 10,662
0.3%
Фильм-БОМБА!:-)
Советую...
videofunut
Стаж: 3 года 10 мес.
Сообщений: 76
Ratio: 43,027
100%
Ну, на счёт бомбы не знаю))
На сегодняшний день, у Голливуда осталось три верняка: сиквелы, комиксы и биографии.
Потому говорить, что фильм супер, я бы не стал. Фильм хороший, ну так и ГГ не абы кто.
Лично мне, в первой половине картины не хватило эмоционального накала, но потом всё слава богу наладилось. За то, порадовал стиль постановки и съёмки боёв. На мой взгляд, здорово, что не стали применять всевозможные новомодные спецэффекты, а сделали всё в старых традициях. Вообще, в фильме хорошо передан дух времени. Возникает ощущение, что кино снимали в 70-80-годах.
Порадовал Де Ниро, после своего "лёгкого поведения". Приятным сюрпризом стало присутствие в картине Эллен Баркин. В общем, поклонникам голливудского олдскула, будет, что заценить.
Нормальный биографический фильм. Со второй половины, не хуже "Пеле"))) Дубляж бывал и получше. Но релизеру, в любом случае, большой РЕСПЕКТ и СПАСИБО!
muravus
Стаж: 6 лет 11 мес.
Сообщений: 43
Ratio: 1,01
3.98%
dominicanrep.gif
дениро опустился до ашера..
Игорь​_Тури​ст​
Стаж: 5 лет 10 мес.
Сообщений: 325
Ratio: 90,2
100%
Откуда: Ровно
ukraine.gif
Реклама терпимо переносится (в смысле, не заставляет часто плевать в монитор), или стоит ещё подождать?))
prodigy007
Стаж: 3 года
Сообщений: 83
Ratio: 7,897
1.41%
стоит просто вылечиться один раз и все.

Так себе фильм...

_________________
Раздаю в будни: 08-00 до 09-00, 20-30 до 22-30.
Выходные: 10-00 до 23-00.
vovan-bob
Стаж: 3 года 6 мес.
Сообщений: 176
Ratio: 62,377
Раздал: 10,5 TB
84.42%
Откуда: СССР
ussr.gif
спасибо!понравился филъмец
iuyt
Стаж: 6 лет 4 мес.
Сообщений: 155
Ratio: 1,861
3.85%
russia.gif
Интересно кто победит, каменная башка или каменные кулаки
Tаren
Стаж: 7 лет 2 мес.
Сообщений: 157
Ratio: 5,062
2.97%
iuyt
победит стальные яйки :D
orionts
Стаж: 6 лет 3 мес.
Сообщений: 52
Ratio: 3,691
12.52%
russia.gif
Хороший фильм :бокс: :бокс:
Lone
Стаж: 10 лет 2 мес.
Сообщений: 370
Ratio: 2,936
17.71%
Откуда: Москва
russia.gif
videofunut писал(а): Перейти к сообщению
Ну, на счёт бомбы не знаю))
На сегодняшний день, у Голливуда осталось три верняка: сиквелы, комиксы и биографии.
Потому говорить, что фильм супер, я бы не стал. Фильм хороший, ну так и ГГ не абы кто.
Лично мне, в первой половине картины не хватило эмоционального накала, но потом всё слава богу наладилось. За то, порадовал стиль постановки и съёмки боёв. На мой взгляд, здорово, что не стали применять всевозможные новомодные спецэффекты, а сделали всё в старых традициях. Вообще, в фильме хорошо передан дух времени. Возникает ощущение, что кино снимали в 70-80-годах.
Порадовал Де Ниро, после своего "лёгкого поведения". Приятным сюрпризом стало присутствие в картине Эллен Баркин. В общем, поклонникам голливудского олдскула, будет, что заценить.
Нормальный биографический фильм. Со второй половины, не хуже "Пеле"))) Дубляж бывал и получше. Но релизеру, в любом случае, большой РЕСПЕКТ и СПАСИБО!


Все так! Фильм хорош, не Рокки, но зато про настоящего человека.
Показать сообщения:   
Начать новую тему   Ответить на тему    Торрент-трекер NNM-Club -> Горячие новинки -> Зарубежные Новинки (HD*Rip/LQ, DVDRip) Часовой пояс: GMT + 3
Страница 1 из 1