Интеллигентный торрент-трекер
canvas not supported
Нас вместе: 4 112 184

The Pretty Reckless - Who You Selling For (2016) [FLAC 2.0|24/192|image|Vinyl-Rip]<Hard Rock>


 
 
RSS
Начать новую тему   Ответить на тему    Торрент-трекер NNM-Club -> HD Audio и Многоканальная Музыка -> Vinyl-Rip и Hand-Made
Автор Сообщение
tegoffs ®
Виниловод. Сталкер
Стаж: 8 лет 11 мес.
Сообщений: 2896
Ratio: 17,52
Поблагодарили: 8250
100%
Откуда: мне знать?
honduras.gif
The Pretty Reckless - Who You Selling For (2016)
Год: 2016
Лейбл: Rasor & Tie (RZR00038)
Страна: US
Жанр: Hard Rock
Продолжительность: 00:51:52

Кодек: FLAC 2.0 24/192
Тип рипа: image+.cue
Формат записи: 32/192
Формат раздачи: 24/192

Треклист:
01. The Walls Are Closing In / Hangman (6:37)
02. Oh My God (3:25)
03. Take Me Down (4:12)
04. Prisoner (3:00)
05. Wild City (4:49)
06. Back to the River (feat. Warren Haynes) (5:09)
07. Who You Selling For (2:48)
08. Bedroom Window (2:03)
09. Living in the Storm (5:04)
10. Already Dead (4:16)
11. The Devil's Back (7:06)
12. Mad Love (3:24)
Состояние диска более-менее нормальное - ex, шумная масса.
Тракт: AT-OC9/III -> Yamaha GT-750 -> Lehmann Audio Black Cube SE -> Lynx L22 (интерконнекты Yamaha и Lynx).
Снято Sound Forge Pro 11, из постобработки - убрал существенные щелчки.
Кьюшка и постер прописаны во флак.
Коврики приложены.
Код: выделить все

General
Complete name : Z:\Копия MusicAttic\music collection\torrents\The Pretty Reckless - Who You Selling For\The Pretty Reckless - Who You Selling For.flac
Format : FLAC
Format/Info : Free Lossless Audio Codec
File size : 1.97 GiB
Duration : 51mn 52s
Overall bit rate mode : Variable
Overall bit rate : 5 440 Kbps
Album : Who You Selling For
Performer : The Pretty Reckless
Producer : https://www.discogs.com/The-Pretty-Reckless-Who-You-Selling-For/release/9233400
Genre : Hard Rock
Recorded date : 2016
Cover : Yes
Cover type : Cover (front)
Cover MIME : image/jpeg
Comment : AT-OC9/III -> Yamaha GT-750 -> Lehmann Audio Black Cube SE -> Lynx L22 (интерконнекты Yamaha и Lynx).
CUESHEET : REM GENRE "Hard Rock" / REM DATE 2016 / PERFORMER "The Pretty Reckless" / TITLE "Who You Selling For" / FILE "The Pretty Reckless - Who You Selling For.flac" WAVE / TRACK 01 AUDIO / TITLE "The Walls Are Closing In / Hangman" / PERFORMER "The Pretty Reckless" / INDEX 01 00:00:00 / TRACK 02 AUDIO / TITLE "Oh My God" / PERFORMER "The Pretty Reckless" / INDEX 01 06:36:38 / TRACK 03 AUDIO / TITLE "Take Me Down" / PERFORMER "The Pretty Reckless" / INDEX 01 10:01:59 / TRACK 04 AUDIO / TITLE "Prisoner" / PERFORMER "The Pretty Reckless" / INDEX 01 14:13:59 / TRACK 05 AUDIO / TITLE "Wild City" / PERFORMER "The Pretty Reckless" / INDEX 01 17:14:05 / TRACK 06 AUDIO / TITLE "Back to the River (feat. Warren Haynes)" / PERFORMER "The Pretty Reckless" / INDEX 01 22:02:43 / TRACK 07 AUDIO / TITLE "Who You Selling For" / PERFORMER "The Pretty Reckless" / INDEX 01 27:11:59 / TRACK 08 AUDIO / TITLE "Bedroom Window" / PERFORMER "The Pretty Reckless" / INDEX 01 29:59:50 / TRACK 09 AUDIO / TITLE "Living in the Storm" / PERFORMER "The Pretty Reckless" / INDEX 01 32:02:17 / TRACK 10 AUDIO / TITLE "Already Dead" / PERFORMER "The Pretty Reckless" / INDEX 01 37:05:59 / TRACK 11 AUDIO / TITLE "The Devil's Back" / PERFORMER "The Pretty Reckless" / INDEX 01 41:22:11 / TRACK 12 AUDIO / TITLE "Mad Love" / PERFORMER "The Pretty Reckless" / INDEX 01 48:28:00

Audio
Format : FLAC
Format/Info : Free Lossless Audio Codec
Duration : 51mn 52s
Bit rate mode : Variable
Bit rate : 5 440 Kbps
Channel(s) : 2 channels
Channel positions : Front: L R
Sampling rate : 192 KHz
Bit depth : 24 bits
Stream size : 1.97 GiB (100%)
Writing library : libFLAC 1.3.0 (UTC 2013-05-26)
Код: выделить все
foobar2000 1.3.9 / Dynamic Range Meter 1.1.1
log date: 2016-11-05 17:26:15

--------------------------------------------------------------------------------
Analyzed: The Pretty Reckless / Who You Selling For
--------------------------------------------------------------------------------

DR         Peak         RMS     Duration Track
--------------------------------------------------------------------------------
DR11      -1.99 dB   -15.10 dB      6:37 01-The Walls Are Closing In / Hangman
DR10      -2.17 dB   -14.22 dB      3:25 02-Oh My God
DR10      -1.94 dB   -13.93 dB      4:12 03-Take Me Down
DR9       -4.29 dB   -16.28 dB      3:00 04-Prisoner
DR9       -2.71 dB   -14.78 dB      4:49 05-Wild City
DR9       -2.79 dB   -14.06 dB      5:09 06-Back to the River (feat. Warren Haynes)
DR10      -1.93 dB   -14.83 dB      2:48 07-Who You Selling For
DR11      -8.23 dB   -22.66 dB      2:03 08-Bedroom Window
DR10      -2.00 dB   -13.98 dB      5:04 09-Living in the Storm
DR11      -1.22 dB   -13.98 dB      4:16 10-Already Dead
DR13      -2.64 dB   -17.47 dB      7:06 11-The Devil's Back
DR12      -1.59 dB   -15.89 dB      3:24 12-Mad Love
--------------------------------------------------------------------------------

Number of tracks:  12
Official DR value: DR10

Samplerate:        192000 Hz
Channels:          2
Bits per sample:   24
Bitrate:           5440 kbps
Codec:             FLAC
================================================================================
YouTube
Время раздачи: 24/7 до пяти скачавших, канал полудохлый, терпеливо ждем.
[NNMClub.to]_The Pretty Reckless - Who You Selling For.torrent
 Торрент: Золотая раздача  Зарегистрирован
 
Примагнититься
Free Leech
Зарегистрируйтесь и скачайте торрент!
21 KB
 Зарегистрирован:   06 Ноя 2016 01:55:51
 Размер:   1,99 GB  (
 Рейтинг:    (Голосов: 6)
 Поблагодарили:   42
 Проверка:   Оформление проверено модератором 06 Ноя 2016 06:55:07
Как cкачать  ·  Как раздать  ·  Правильно оформить  ·  Поднять ратио!  

_________________
It's only rock 'n' roll but I like it! (c) Jagger and Richards
Показать сообщения:   
Начать новую тему   Ответить на тему    Торрент-трекер NNM-Club -> HD Audio и Многоканальная Музыка -> Vinyl-Rip и Hand-Made Часовой пояс: GMT + 3
Страница 1 из 1