Интеллигентный торрент-трекер
canvas not supported
Нас вместе: 4 104 030

David Dando-Moore (Detritus, A Wake A Week) - Discography 11 Releases (2002-2014) [FLAC|Lossless|tracks+.cue] <IDM, Downtempo, Industrial, Modern Classical, Ambient>


 
 
RSS
Начать новую тему   Ответить на тему    Торрент-трекер NNM-Club -> Electronic -> IDM (Lossless)
Автор Сообщение
vilator ®
Модератор Музыки
RG Музыки
 
Стаж: 7 лет 7 мес.
Сообщений: 5412
Ratio: 117,583
Поблагодарили: 104009
100%
Откуда: Minsk
pirates.png
Detritus / A Wake A Week

Детище лейбла Ad Noiseam - Detritus - проект, удачно балансирующий на грани breakcore, idm и rhythmic noise , стремительно набирающий популярность как в родной Великобритании, так и за ее пределами. Проект был основан в 2002 году David Dando-Moore вместе с выпуском демо-альбома "Martyr", сочетающим в себе как ритмично-индустриальные структуры, так и эмоциональную мелодическую составляющую. Характерная черта творчества проекта - это грамотный баланс между ритмом и мелодией, с одной стороны манящий в сторону танцпола, с другой располагающий к размышлениям и погружениям в глубины собственной души. Его хитросплетения ритмов и мелодий свежо и красиво, цепляющее и вызывающе одновременно. Атомы хрупких мелодических пассажей сливаются с гипнотическими ритмическими структурами в единую матрицу тончайших переживаний человеческой души. Его альбомы - это коллекции завораживающих мелодий и мощных жирных басовых импровизаций, на дне которых прячется хрупкое сердце. Для Дейва брейки - это не просто музыкальный термин, а открытая кровоточащая рана, сосуды, по которым текут причудливые воспоминания и размышления, порой то замедляя, то ускоряя темп, образуя хитросплетенный орнамент звуков, эффектов и мелодий. Мечтательная мгла его параллельного мира, галактические грувы и электронная эмбиентная поверхность, скрывающаяся под ними открывают эмоциональный пейзаж души музыканта.
Жанр: IDM, Downtempo, Industrial, D'n'B, Modern Classical, Ambient • Страна: UK • Год издания: 2002-2014 • Тип издания: CD, Web
Аудиокодек: FLAC (*.flac) • Тип рипа: tracks+.cue, tracks • Продолжительность: 08:01:18 • Источник: What, bandcamp • Наличие сканов: Да
Треклист:
Год выпуска: 2002
Продолжительность: 00:56:32
Треклист:

01. Equilibrium (04:46)
02. Element (04:13)
03. Diminish (05:48)
04. Penitence (05:01)
05. Equilibrium (Opportunistic Infection Mix) (04:50)
06. Bio Emperative (06:23)
07. Esbat (06:39)
08. Black Market Organ (05:53)
09. Cell Death (05:40)
10. Esbat (Catharsis Mix) (07:19)

Exact Audio Copy V0.99 prebeta 5 from 4. May 2009

EAC extraction logfile from 23. June 2010, 19:50

Antigen Shift / Detritus / Conjugate

Used drive : Optiarc DVD RW AD-7240S Adapter: 1 ID: 1

Read mode : Secure
Utilize accurate stream : Yes
Defeat audio cache : Yes
Make use of C2 pointers : No

Read offset correction : 48
Overread into Lead-In and Lead-Out : No
Fill up missing offset samples with silence : Yes
Delete leading and trailing silent blocks : No
Null samples used in CRC calculations : Yes
Used interface : Native Win32 interface for Win NT & 2000
Gap handling : Appended to previous track

Used output format : User Defined Encoder
Selected bitrate : 1024 kBit/s
Quality : High
Add ID3 tag : No
Command line compressor : C:\Program Files\Exact Audio Copy\Flac\flac.exe
Additional command line options : -8 -V -T "ARTIST=%a" -T "TITLE=%t" -T "ALBUM=%g" -T "DATE=%y" -T "TRACKNUMBER=%n" -T "GENRE=%m" -T "COMMENT=EAC FLAC -8" %s

TOC of the extracted CD

Track | Start | Length | Start sector | End sector
---------------------------------------------------------
1 | 0:00.00 | 4:46.11 | 0 | 21460
2 | 4:46.11 | 4:12.59 | 21461 | 40419
3 | 8:58.70 | 5:47.67 | 40420 | 66511
4 | 14:46.62 | 5:00.55 | 66512 | 89066
5 | 19:47.42 | 4:50.27 | 89067 | 110843
6 | 24:37.69 | 6:23.05 | 110844 | 139573
7 | 31:00.74 | 6:38.66 | 139574 | 169489
8 | 37:39.65 | 5:52.73 | 169490 | 195962
9 | 43:32.63 | 5:39.40 | 195963 | 221427
10 | 49:12.28 | 7:18.70 | 221428 | 254347

Track 1

Filename D:\Converted\01 - detritus , equilibrium.wav

Pre-gap length 0:00:02.00

Peak level 100.0 %
Track quality 100.0 %
Test CRC 49A24338
Copy CRC 49A24338
Track not present in AccurateRip database
Copy OK

Track 2

Filename D:\Converted\02 - detritus , element.wav

Peak level 100.0 %
Track quality 100.0 %
Test CRC 43AC4171
Copy CRC 43AC4171
Track not present in AccurateRip database
Copy OK

Track 3

Filename D:\Converted\03 - detritus , diminish.wav

Peak level 100.0 %
Track quality 100.0 %
Test CRC 443A5825
Copy CRC 443A5825
Track not present in AccurateRip database
Copy OK

Track 4

Filename D:\Converted\04 - detritus , penitence.wav

Peak level 100.0 %
Track quality 99.8 %
Test CRC BDFA9891
Copy CRC BDFA9891
Track not present in AccurateRip database
Copy OK

Track 5

Filename D:\Converted\05 - detritus , equilibrium (antigen shift remix).wav

Peak level 100.0 %
Track quality 100.0 %
Test CRC 89620FAE
Copy CRC 89620FAE
Track not present in AccurateRip database
Copy OK

Track 6

Filename D:\Converted\06 - antigen shift , bio emperative.wav

Peak level 100.0 %
Track quality 100.0 %
Test CRC 540B7CEE
Copy CRC 540B7CEE
Track not present in AccurateRip database
Copy OK

Track 7

Filename D:\Converted\07 - antigen shift , esbat.wav

Peak level 100.0 %
Track quality 100.0 %
Test CRC AB1DC3B2
Copy CRC AB1DC3B2
Track not present in AccurateRip database
Copy OK

Track 8

Filename D:\Converted\08 - antigen shift , black market organ.wav

Peak level 100.0 %
Track quality 99.9 %
Test CRC 91ADC04F
Copy CRC 91ADC04F
Track not present in AccurateRip database
Copy OK

Track 9

Filename D:\Converted\09 - antigen shift , cell death.wav

Peak level 100.0 %
Track quality 100.0 %
Test CRC 4A213CFD
Copy CRC 4A213CFD
Track not present in AccurateRip database
Copy OK

Track 10

Filename D:\Converted\10 - antigen shift , esbat (detritus remix).wav

Peak level 99.6 %
Track quality 100.0 %
Test CRC E66336FD
Copy CRC E66336FD
Track not present in AccurateRip database
Copy OK

None of the tracks are present in the AccurateRip database

No errors occurred

End of status report


REM GENRE Electronic
REM DATE 2002
REM DISCID 9A0D3F0A
REM COMMENT "ExactAudioCopy v0.99pb5"
PERFORMER "Antigen Shift / Detritus"
TITLE "Сonjugate"
FILE "01 - detritus , equilibrium.wav" WAVE
TRACK 01 AUDIO
TITLE "detritus / equilibrium"
PERFORMER "Antigen Shift / Detritus"
INDEX 01 00:00:00
FILE "02 - detritus , element.wav" WAVE
TRACK 02 AUDIO
TITLE "detritus / element"
PERFORMER "Antigen Shift / Detritus"
INDEX 01 00:00:00
FILE "03 - detritus , diminish.wav" WAVE
TRACK 03 AUDIO
TITLE "detritus / diminish"
PERFORMER "Antigen Shift / Detritus"
INDEX 01 00:00:00
FILE "04 - detritus , penitence.wav" WAVE
TRACK 04 AUDIO
TITLE "detritus / penitence"
PERFORMER "Antigen Shift / Detritus"
INDEX 01 00:00:00
FILE "05 - detritus , equilibrium (antigen shift remix).wav" WAVE
TRACK 05 AUDIO
TITLE "detritus / equilibrium (antigen shift remix)"
PERFORMER "Antigen Shift / Detritus"
INDEX 01 00:00:00
FILE "06 - antigen shift , bio emperative.wav" WAVE
TRACK 06 AUDIO
TITLE "antigen shift / bio emperative"
PERFORMER "Antigen Shift / Detritus"
INDEX 01 00:00:00
FILE "07 - antigen shift , esbat.wav" WAVE
TRACK 07 AUDIO
TITLE "antigen shift / esbat"
PERFORMER "Antigen Shift / Detritus"
INDEX 01 00:00:00
FILE "08 - antigen shift , black market organ.wav" WAVE
TRACK 08 AUDIO
TITLE "antigen shift / black market organ"
PERFORMER "Antigen Shift / Detritus"
INDEX 01 00:00:00
FILE "09 - antigen shift , cell death.wav" WAVE
TRACK 09 AUDIO
TITLE "antigen shift / cell death"
PERFORMER "Antigen Shift / Detritus"
INDEX 01 00:00:00
FILE "10 - antigen shift , esbat (detritus remix).wav" WAVE
TRACK 10 AUDIO
TITLE "antigen shift / esbat (detritus remix)"
PERFORMER "Antigen Shift / Detritus"
INDEX 01 00:00:00

Год выпуска: 2003
Продолжительность: 01:05:01
Треклист:

01. Ramify (05:59)
02. Restoration (05:51)
03. Word (03:56)
04. Exogenous (05:34)
05. Maxim (05:09)
06. Grace (05:08)
07. Enumeration (06:19)
08. Atone (05:00)
09. Immanent (04:12)
10. Hollowed (05:36)
11. Endogenous (Pneumatic Detach Remix) (05:29)
12. Immanent (Scrap.edx Remix) (06:48)

EAC extraction logfile from 14. March 2006, 15:53 for CD
Detritus / Enogenous

Used drive : SONY DVD RW DRU-720A Adapter: 3 ID: 0
Read mode : Secure with NO C2, accurate stream, disable cache
Read offset correction : 12
Overread into Lead-In and Lead-Out : No

Used output format : C:\Program Files\FLAC\flac.exe (User Defined Encoder)
128 kBit/s
Additional command line options : -T "artist=%a" -T "title=%t" -T "album=%g" -T "date=%y" -T "tracknumber=%n" -T "genre=%m" %s

Other options :
Fill up missing offset samples with silence : Yes
Delete leading and trailing silent blocks : No
Installed external ASPI interface

Track 1
Filename C:\BT Downloads\Detritus\Enogenous\01 - Ramify.wav

Pre-gap length 0:00:02.00

Peak level 79.5 %
Track quality 100.0 %
Test CRC 41D4E0E3
Copy CRC 41D4E0E3
Copy OK

Track 2
Filename C:\BT Downloads\Detritus\Enogenous\02 - Restoration.wav

Pre-gap length 0:00:03.00

Peak level 96.6 %
Track quality 100.0 %
Test CRC 5156AF5B
Copy CRC 5156AF5B
Copy OK

Track 3
Filename C:\BT Downloads\Detritus\Enogenous\03 - Word.wav

Pre-gap length 0:00:03.00

Peak level 84.0 %
Track quality 100.0 %
Test CRC A3C9B4AF
Copy CRC A3C9B4AF
Copy OK

Track 4
Filename C:\BT Downloads\Detritus\Enogenous\04 - Exogenous.wav

Pre-gap length 0:00:03.00

Peak level 97.5 %
Track quality 100.0 %
Test CRC 24E2CEC3
Copy CRC 24E2CEC3
Copy OK

Track 5
Filename C:\BT Downloads\Detritus\Enogenous\05 - Maxim.wav

Pre-gap length 0:00:03.00

Peak level 87.2 %
Track quality 100.0 %
Test CRC 28B2DC7A
Copy CRC 28B2DC7A
Copy OK

Track 6
Filename C:\BT Downloads\Detritus\Enogenous\06 - Grace.wav

Pre-gap length 0:00:03.00

Peak level 96.6 %
Track quality 100.0 %
Test CRC 595EDBC7
Copy CRC 595EDBC7
Copy OK

Track 7
Filename C:\BT Downloads\Detritus\Enogenous\07 - Enumeration.wav

Pre-gap length 0:00:03.00

Peak level 96.6 %
Track quality 100.0 %
Test CRC 62E81E11
Copy CRC 62E81E11
Copy OK

Track 8
Filename C:\BT Downloads\Detritus\Enogenous\08 - Atone.wav

Pre-gap length 0:00:03.00

Peak level 97.5 %
Track quality 100.0 %
Test CRC DEBBC0B1
Copy CRC DEBBC0B1
Copy OK

Track 9
Filename C:\BT Downloads\Detritus\Enogenous\09 - Immanent.wav

Pre-gap length 0:00:03.00

Peak level 65.4 %
Track quality 99.9 %
Test CRC 819FAFFC
Copy CRC 819FAFFC
Copy OK

Track 10
Filename C:\BT Downloads\Detritus\Enogenous\10 - Hollowed.wav

Pre-gap length 0:00:03.00

Peak level 87.5 %
Track quality 100.0 %
Test CRC 703E5643
Copy CRC 703E5643
Copy OK

Track 11
Filename C:\BT Downloads\Detritus\Enogenous\11 - Endogenous (Pneumatic Detach remix).wav

Pre-gap length 0:00:03.00

Peak level 59.4 %
Track quality 100.0 %
Test CRC 0AFA4D7E
Copy CRC 0AFA4D7E
Copy OK

Track 12
Filename C:\BT Downloads\Detritus\Enogenous\12 - Immanent (Scrap.edx remix).wav

Pre-gap length 0:00:03.00

Peak level 85.9 %
Track quality 100.0 %
Test CRC 90893560
Copy CRC 90893560
Copy OK

No errors occured

End of status report


PERFORMER "Detritus"
TITLE "Enogenous"
FILE "01 - Ramify.wav" WAVE
TRACK 01 AUDIO
TITLE "Ramify"
PERFORMER "Detritus"
INDEX 01 00:00:00
TRACK 02 AUDIO
TITLE "Restoration"
PERFORMER "Detritus"
INDEX 00 05:56:16
FILE "02 - Restoration.wav" WAVE
INDEX 01 00:00:00
TRACK 03 AUDIO
TITLE "Word"
PERFORMER "Detritus"
INDEX 00 05:47:50
FILE "03 - Word.wav" WAVE
INDEX 01 00:00:00
TRACK 04 AUDIO
TITLE "Exogenous"
PERFORMER "Detritus"
INDEX 00 03:52:39
FILE "04 - Exogenous.wav" WAVE
INDEX 01 00:00:00
TRACK 05 AUDIO
TITLE "Maxim"
PERFORMER "Detritus"
INDEX 00 05:31:14
FILE "05 - Maxim.wav" WAVE
INDEX 01 00:00:00
TRACK 06 AUDIO
TITLE "Grace"
PERFORMER "Detritus"
INDEX 00 05:06:23
FILE "06 - Grace.wav" WAVE
INDEX 01 00:00:00
TRACK 07 AUDIO
TITLE "Enumeration"
PERFORMER "Detritus"
INDEX 00 05:04:57
FILE "07 - Enumeration.wav" WAVE
INDEX 01 00:00:00
TRACK 08 AUDIO
TITLE "Atone"
PERFORMER "Detritus"
INDEX 00 06:16:35
FILE "08 - Atone.wav" WAVE
INDEX 01 00:00:00
TRACK 09 AUDIO
TITLE "Immanent"
PERFORMER "Detritus"
INDEX 00 04:56:71
FILE "09 - Immanent.wav" WAVE
INDEX 01 00:00:00
TRACK 10 AUDIO
TITLE "Hollowed"
PERFORMER "Detritus"
INDEX 00 04:09:01
FILE "10 - Hollowed.wav" WAVE
INDEX 01 00:00:00
TRACK 11 AUDIO
TITLE "Endogenous (Pneumatic Detach remix)"
PERFORMER "Detritus"
INDEX 00 05:32:48
FILE "11 - Endogenous (Pneumatic Detach Remix).wav" WAVE
INDEX 01 00:00:00
TRACK 12 AUDIO
TITLE "Immanent (Scrap.edx remix)"
PERFORMER "Detritus"
INDEX 00 05:26:01
FILE "12 - Immanent (Scrap.edx Remix).wav" WAVE
INDEX 01 00:00:00

Год выпуска: 2005
Продолжительность: 00:51:53
Треклист:

01. Paper Cuts (05:05)
02. Dead Daffodils (05:05)
03. 16 Fingers (04:55)
04. Dil Wyn (04:34)
05. Tinsel (05:33)
06. Origin Narrative (v3.03) (04:38)
07. Fable (05:01)
08. Embedded (04:29)
09. Sense (05:53)
10. 16 Fingers (Remix By Mothboy) (03:28)
11. Paper Cuts (Rubbing Mud Remix By Mad E.P.) (03:12)

Exact Audio Copy V1.0 beta 4 from 7. December 2014

EAC extraction logfile from 17. October 2015, 20:01

Detritus / Origin

Used drive : HL-DT-STDVD-RAM GSA-H30N Adapter: 1 ID: 0

Read mode : Secure
Utilize accurate stream : Yes
Defeat audio cache : Yes
Make use of C2 pointers : No

Read offset correction : 102
Overread into Lead-In and Lead-Out : No
Fill up missing offset samples with silence : Yes
Delete leading and trailing silent blocks : No
Null samples used in CRC calculations : Yes
Used interface : Native Win32 interface for Win NT & 2000
Gap handling : Appended to previous track

Used output format : User Defined Encoder
Selected bitrate : 1024 kBit/s
Quality : High
Add ID3 tag : No
Command line compressor : C:\Program Files\Exact Audio Copy\Flac\flac.exe
Additional command line options : -8 -V -T "ARTIST=%artist%" -T "TITLE=%title%" -T "ALBUM=%albumtitle%" -T "DATE=%year%" -T "TRACKNUMBER=%tracknr%" -T "GENRE=%genre%" -T "PERFORMER=%albuminterpret%" -T "COMPOSER=%composer%" %haslyrics%--tag-from-file=LYRICS="%lyricsfile%"%haslyrics% -T "ALBUMARTIST=%albumartist%" -T "DISCNUMBER=%cdnumber%" -T "TOTALDISCS=%totalcds%" -T "TOTALTRACKS=%numtracks%" -T "COMMENT=%comment%" %source% -o %dest%

TOC of the extracted CD

Track | Start | Length | Start sector | End sector
---------------------------------------------------------
1 | 0:00.00 | 5:04.60 | 0 | 22859
2 | 5:04.60 | 5:04.40 | 22860 | 45699
3 | 10:09.25 | 4:54.48 | 45700 | 67797
4 | 15:03.73 | 4:34.15 | 67798 | 88362
5 | 19:38.13 | 5:32.42 | 88363 | 113304
6 | 25:10.55 | 4:38.34 | 113305 | 134188
7 | 29:49.14 | 5:00.51 | 134189 | 156739
8 | 34:49.65 | 4:28.54 | 156740 | 176893
9 | 39:18.44 | 5:53.06 | 176894 | 203374
10 | 45:11.50 | 3:28.32 | 203375 | 219006
11 | 48:40.07 | 3:12.09 | 219007 | 233415

Track 1

Filename C:\01 Paper Cuts.wav

Pre-gap length 0:00:02.00

Copy aborted

Track 2

Pre-gap length 0:00:01.80

Copy aborted

Track 3

Pre-gap length 0:00:01.53

Copy aborted

Track 4

Pre-gap length 0:00:02.00

Copy aborted

Track 5

Pre-gap length 0:00:02.00

Copy aborted

Track 6

Pre-gap length 0:00:02.00

Copy aborted

Track 7

Pre-gap length 0:00:01.53

Copy aborted

Track 8

Pre-gap length 0:00:01.00

Copy aborted

Track 9

Pre-gap length 0:00:01.80

Copy aborted

Track 10

Pre-gap length 0:00:02.00

Copy aborted

Track 11

Pre-gap length 0:00:01.06

Copy aborted

No tracks could be verified as accurate

There were errors

End of status report

==== Log checksum 4E262C838712DEE63EFAAD848B7AC3728BB03A0A902CC2715E0B784A3685EB32 ====

------------------------------------------------------------

Exact Audio Copy V1.0 beta 4 from 7. December 2014

EAC extraction logfile from 17. October 2015, 21:19

Detritus / Origin

Used drive : HL-DT-STDVD-RAM GSA-H30N Adapter: 1 ID: 0

Read mode : Secure
Utilize accurate stream : Yes
Defeat audio cache : Yes
Make use of C2 pointers : No

Read offset correction : 102
Overread into Lead-In and Lead-Out : No
Fill up missing offset samples with silence : Yes
Delete leading and trailing silent blocks : No
Null samples used in CRC calculations : Yes
Used interface : Native Win32 interface for Win NT & 2000
Gap handling : Appended to previous track

Used output format : User Defined Encoder
Selected bitrate : 1024 kBit/s
Quality : High
Add ID3 tag : No
Command line compressor : C:\Program Files\Exact Audio Copy\Flac\flac.exe
Additional command line options : -8 -V -T "ARTIST=%artist%" -T "TITLE=%title%" -T "ALBUM=%albumtitle%" -T "DATE=%year%" -T "TRACKNUMBER=%tracknr%" -T "GENRE=%genre%" -T "PERFORMER=%albuminterpret%" -T "COMPOSER=%composer%" %haslyrics%--tag-from-file=LYRICS="%lyricsfile%"%haslyrics% -T "ALBUMARTIST=%albumartist%" -T "DISCNUMBER=%cdnumber%" -T "TOTALDISCS=%totalcds%" -T "TOTALTRACKS=%numtracks%" -T "COMMENT=%comment%" %source% -o %dest%

TOC of the extracted CD

Track | Start | Length | Start sector | End sector
---------------------------------------------------------
1 | 0:00.00 | 5:04.60 | 0 | 22859
2 | 5:04.60 | 5:04.40 | 22860 | 45699
3 | 10:09.25 | 4:54.48 | 45700 | 67797
4 | 15:03.73 | 4:34.15 | 67798 | 88362
5 | 19:38.13 | 5:32.42 | 88363 | 113304
6 | 25:10.55 | 4:38.34 | 113305 | 134188
7 | 29:49.14 | 5:00.51 | 134189 | 156739
8 | 34:49.65 | 4:28.54 | 156740 | 176893
9 | 39:18.44 | 5:53.06 | 176894 | 203374
10 | 45:11.50 | 3:28.32 | 203375 | 219006
11 | 48:40.07 | 3:12.09 | 219007 | 233415

Track 1

Filename C:\01 Paper Cuts.wav

Pre-gap length 0:00:02.00

Peak level 100.0 %
Extraction speed 1.4 X
Track quality 99.9 %
Test CRC 3BD7A551
Copy CRC 3BD7A551
Accurately ripped (confidence 5) [4BBF59C2] (AR v1)
Copy OK

Track 2

Filename C:\02 Dead Daffodils.wav

Pre-gap length 0:00:01.80

Peak level 99.5 %
Extraction speed 1.8 X
Track quality 100.0 %
Test CRC 84A4FDAB
Copy CRC 84A4FDAB
Accurately ripped (confidence 5) [FEACD93A] (AR v1)
Copy OK

Track 3

Filename C:\03 16 Fingers.wav

Pre-gap length 0:00:01.53

Peak level 99.5 %
Extraction speed 2.0 X
Track quality 100.0 %
Test CRC 366F37AC
Copy CRC 366F37AC
Accurately ripped (confidence 5) [95597F07] (AR v1)
Copy OK

Track 4

Filename C:\04 Dil Wyn.wav

Pre-gap length 0:00:02.00

Peak level 99.5 %
Extraction speed 1.9 X
Track quality 99.9 %
Test CRC 5E5FB7FF
Copy CRC 5E5FB7FF
Accurately ripped (confidence 5) [A629BA31] (AR v1)
Copy OK

Track 5

Filename C:\05 Tinsel.wav

Pre-gap length 0:00:02.00

Peak level 99.5 %
Extraction speed 2.3 X
Track quality 100.0 %
Test CRC 99B6F741
Copy CRC 99B6F741
Accurately ripped (confidence 5) [4D7BA690] (AR v1)
Copy OK

Track 6

Filename C:\06 Origin Narrative (v3.03).wav

Pre-gap length 0:00:02.00

Peak level 99.5 %
Extraction speed 2.4 X
Track quality 100.0 %
Test CRC 1813E1E0
Copy CRC 1813E1E0
Accurately ripped (confidence 5) [054FCF1C] (AR v1)
Copy OK

Track 7

Filename C:\07 Fable.wav

Pre-gap length 0:00:01.53

Peak level 99.5 %
Extraction speed 2.6 X
Track quality 100.0 %
Test CRC 9DD22A55
Copy CRC 9DD22A55
Accurately ripped (confidence 5) [5DDCE20A] (AR v1)
Copy OK

Track 8

Filename C:\08 Embedded.wav

Pre-gap length 0:00:01.00

Peak level 99.5 %
Extraction speed 2.7 X
Track quality 100.0 %
Test CRC 053AA7C9
Copy CRC 053AA7C9
Accurately ripped (confidence 5) [C8BAC79D] (AR v1)
Copy OK

Track 9

Filename C:\09 Sense.wav

Pre-gap length 0:00:01.80

Peak level 99.5 %
Extraction speed 2.9 X
Track quality 100.0 %
Test CRC 94D39979
Copy CRC 94D39979
Accurately ripped (confidence 5) [5036EBAE] (AR v1)
Copy OK

Track 10

Filename C:\10 16 Fingers (Mothboy remix).wav

Pre-gap length 0:00:02.00

Peak level 99.5 %
Extraction speed 2.8 X
Track quality 100.0 %
Test CRC 50BAEEA3
Copy CRC 50BAEEA3
Accurately ripped (confidence 5) [A2A991F2] (AR v1)
Copy OK

Track 11

Filename C:\11 Paper Cuts (Rubbing Mud remix by Mad E.P.).wav

Pre-gap length 0:00:01.06

Peak level 99.5 %
Extraction speed 2.9 X
Track quality 100.0 %
Test CRC 81043257
Copy CRC 81043257
Accurately ripped (confidence 5) [95F03E08] (AR v1)
Copy OK

All tracks accurately ripped

No errors occurred

End of status report

---- CUETools DB Plugin V2.1.4

[CTDB TOCID: xKGwcP50dls1tKRhbPBl3gWtvCM-] found
Submit result: xKGwcP50dls1tKRhbPBl3gWtvCM- has been confirmed
Track | CTDB Status
1 | (4/4) Accurately ripped
2 | (4/4) Accurately ripped
3 | (4/4) Accurately ripped
4 | (4/4) Accurately ripped
5 | (4/4) Accurately ripped
6 | (4/4) Accurately ripped
7 | (4/4) Accurately ripped
8 | (4/4) Accurately ripped
9 | (4/4) Accurately ripped
10 | (4/4) Accurately ripped
11 | (4/4) Accurately ripped

==== Log checksum CB23411CE7B2F513110DB826ECFAC298D89E52DCF730A97BE41658614992E68E ====


REM DATE 2005
REM DISCID 790C280B
REM COMMENT "ExactAudioCopy v1.0b4"
PERFORMER "Detritus"
TITLE "Origin"
FILE "01 Paper Cuts.wav" WAVE
TRACK 01 AUDIO
TITLE "Paper Cuts"
PERFORMER "Detritus"
INDEX 01 00:00:00
TRACK 02 AUDIO
TITLE "Dead Daffodils"
PERFORMER "Detritus"
INDEX 00 05:03:00
FILE "02 Dead Daffodils.wav" WAVE
INDEX 01 00:00:00
TRACK 03 AUDIO
TITLE "16 Fingers"
PERFORMER "Detritus"
INDEX 00 05:03:00
FILE "03 16 Fingers.wav" WAVE
INDEX 01 00:00:00
TRACK 04 AUDIO
TITLE "Dil Wyn"
PERFORMER "Detritus"
INDEX 00 04:52:48
FILE "04 Dil Wyn.wav" WAVE
INDEX 01 00:00:00
TRACK 05 AUDIO
TITLE "Tinsel"
PERFORMER "Detritus"
INDEX 00 04:32:15
FILE "05 Tinsel.wav" WAVE
INDEX 01 00:00:00
TRACK 06 AUDIO
TITLE "Origin Narrative (v3.03)"
PERFORMER "Detritus"
INDEX 00 05:30:42
FILE "06 Origin Narrative (v3.03).wav" WAVE
INDEX 01 00:00:00
TRACK 07 AUDIO
TITLE "Fable"
PERFORMER "Detritus"
INDEX 00 04:36:69
FILE "07 Fable.wav" WAVE
INDEX 01 00:00:00
TRACK 08 AUDIO
TITLE "Embedded"
PERFORMER "Detritus"
INDEX 00 04:59:51
FILE "08 Embedded.wav" WAVE
INDEX 01 00:00:00
TRACK 09 AUDIO
TITLE "Sense"
PERFORMER "Detritus"
INDEX 00 04:26:69
FILE "09 Sense.wav" WAVE
INDEX 01 00:00:00
TRACK 10 AUDIO
TITLE "16 Fingers (Mothboy remix)"
PERFORMER "Detritus"
INDEX 00 05:51:06
FILE "10 16 Fingers (Mothboy remix).wav" WAVE
INDEX 01 00:00:00
TRACK 11 AUDIO
TITLE "Paper Cuts (Rubbing Mud remix by Mad E.P.)"
PERFORMER "Detritus"
INDEX 00 03:27:27
FILE "11 Paper Cuts (Rubbing Mud remix by Mad E.P.).wav" WAVE
INDEX 01 00:00:00

Год выпуска: 2006
Продолжительность: 00:20:04
Треклист:

01. Day One (05:31)
02. U(s) (04:54)
03. Fragments (Don't Make A Whole) (04:25)
04. Melting Snow (05:14)

Exact Audio Copy V0.99 prebeta 3 from 28. July 2007

EAC extraction logfile from 31. January 2008, 0:03

Detritus / Thresholds

Used drive : _NEC DVD_RW ND-3550A Adapter: 0 ID: 0

Read mode : Secure
Utilize accurate stream : Yes
Defeat audio cache : Yes
Make use of C2 pointers : No

Read offset correction : 48
Overread into Lead-In and Lead-Out : No
Fill up missing offset samples with silence : Yes
Delete leading and trailing silent blocks : No
Null samples used in CRC calculations : Yes
Used interface : Installed external ASPI interface
Gap handling : Appended to previous track

Used output format : User Defined Encoder
Selected bitrate : 1024 kBit/s
Quality : High
Add ID3 tag : No
Command line compressor : D:\Programs\Tools\_Exact Audio Copy\FLAC\FLAC.EXE
Additional command line options : -8 -V -T "ARTIST=%a" -T "TITLE=%t" -T "ALBUM=%g" -T "DATE=%y" -T "TRACKNUMBER=%n" -T "GENRE=%m" -T "COMMENT=%e" %s -o %d

TOC of the extracted CD

Track | Start | Length | Start sector | End sector
---------------------------------------------------------
1 | 0:00.00 | 5:31.33 | 0 | 24857
2 | 5:31.33 | 4:53.55 | 24858 | 46887
3 | 10:25.13 | 4:25.11 | 46888 | 66773
4 | 14:50.24 | 5:13.70 | 66774 | 90318

Track 1

Filename D:\Detritus - Thresholds\01 Day One.wav

Pre-gap length 0:00:02.00

Peak level 96.6 %
Track quality 100.0 %
Test CRC B259D14C
Copy CRC B259D14C
Track not present in AccurateRip database
Copy OK

Track 2

Filename D:\Detritus - Thresholds\02 U(s).wav

Pre-gap length 0:00:02.00

Peak level 96.6 %
Track quality 100.0 %
Test CRC 2C8E7290
Copy CRC 2C8E7290
Track not present in AccurateRip database
Copy OK

Track 3

Filename D:\Detritus - Thresholds\03 Fragments (Don't Make A Whole).wav

Pre-gap length 0:00:02.00

Peak level 91.2 %
Track quality 100.0 %
Test CRC 1C184D9A
Copy CRC 1C184D9A
Track not present in AccurateRip database
Copy OK

Track 4

Filename D:\Detritus - Thresholds\04 Melting Snow.wav

Pre-gap length 0:00:02.00

Peak level 88.1 %
Track quality 100.0 %
Test CRC E9F4AD7D
Copy CRC E9F4AD7D
Track not present in AccurateRip database
Copy OK

None of the tracks are present in the AccurateRip database

No errors occurred

End of status report



Год выпуска: 2007
Продолжительность: 00:53:00
Треклист:

01. Desolate (5HTP Mix) (04:27)
02. Collide (03:29)
03. Detrimental (05:18)
04. Inside Blue Ice (03:50)
05. Shifts (04:08)
06. Lethe (05:45)
07. Diolch (03:45)
08. Interrupted (05:53)
09. Dancing On Moonbeans (05:31)
10. Interrupted (DJ Hidden Remix) (06:08)
11. Dancing On Moonbeans (Weeping Mix By Keef Baker) (04:46)

X Lossless Decoder version 20100711 (120.5)

XLD extraction logfile from 2010-07-25 18:54:15 +0300

Detritus / Fractured

Used drive : MATSHITA DVD-R UJ-875 (revision DA09)

Use cdparanoia mode : YES (CDParanoia III 10.2 engine)
Disable audio cache : OK for the drive with cache less than 2750KB
Make use of C2 pointers : NO
Read offset correction : 102
Max retry count : 100
Gap status : Analyzed, Appended (except HTOA)

TOC of the extracted CD
Track | Start | Length | Start sector | End sector
---------------------------------------------------------
1 | 00:00:00 | 04:26:40 | 0 | 19989
2 | 04:26:40 | 03:28:71 | 19990 | 35660
3 | 07:55:36 | 05:18:16 | 35661 | 59526
4 | 13:13:52 | 03:50:21 | 59527 | 76797
5 | 17:03:73 | 04:07:61 | 76798 | 95383
6 | 21:11:59 | 05:44:66 | 95384 | 121249
7 | 26:56:50 | 03:45:18 | 121250 | 138142
8 | 30:41:68 | 05:52:52 | 138143 | 164594
9 | 36:34:45 | 05:31:35 | 164595 | 189454
10 | 42:06:05 | 06:07:57 | 189455 | 217036
11 | 48:13:62 | 04:45:71 | 217037 | 238482

All Tracks
Album gain : -8.33 dB
Peak : 1.000000

Track 01
Filename : /Users/sigchill/Music/XLD/Detritus/2007 - Fractured/01 - Desolate (5-HTP Mix).flac

Pre-gap length : 00:02:00

Track gain : -8.80 dB
Peak : 0.987305
CRC32 hash (test run) : CA2413CA
CRC32 hash : CA2413CA
CRC32 hash (skip zero) : 7B4C64C3
AccurateRip signature : 3141019B
->Accurately ripped! (confidence 4)
Statistics
Read error : 0
Skipped (treated as error) : 0
Edge jitter error (maybe fixed) : 0
Atom jitter error (maybe fixed) : 0
Drift error (maybe fixed) : 0
Dropped bytes error (maybe fixed) : 0
Duplicated bytes error (maybe fixed) : 0
Inconsistency in error sectors : 0

Track 02
Filename : /Users/sigchill/Music/XLD/Detritus/2007 - Fractured/02 - Collide.flac

Pre-gap length : 00:03:00

Track gain : -9.27 dB
Peak : 0.993652
CRC32 hash (test run) : EB0E0859
CRC32 hash : EB0E0859
CRC32 hash (skip zero) : 885854B4
AccurateRip signature : BA682E80
->Accurately ripped! (confidence 4)
Statistics
Read error : 0
Skipped (treated as error) : 0
Edge jitter error (maybe fixed) : 0
Atom jitter error (maybe fixed) : 0
Drift error (maybe fixed) : 0
Dropped bytes error (maybe fixed) : 0
Duplicated bytes error (maybe fixed) : 0
Inconsistency in error sectors : 0

Track 03
Filename : /Users/sigchill/Music/XLD/Detritus/2007 - Fractured/03 - Detrimental.flac

Pre-gap length : 00:03:00

Track gain : -7.42 dB
Peak : 0.997162
CRC32 hash (test run) : 7610B5EA
CRC32 hash : 7610B5EA
CRC32 hash (skip zero) : E306B0A2
AccurateRip signature : D0C41751
->Accurately ripped! (confidence 4)
Statistics
Read error : 0
Skipped (treated as error) : 0
Edge jitter error (maybe fixed) : 0
Atom jitter error (maybe fixed) : 0
Drift error (maybe fixed) : 0
Dropped bytes error (maybe fixed) : 0
Duplicated bytes error (maybe fixed) : 0
Inconsistency in error sectors : 0

Track 04
Filename : /Users/sigchill/Music/XLD/Detritus/2007 - Fractured/04 - Inside Blue Ice.flac

Pre-gap length : 00:03:00

Track gain : -6.67 dB
Peak : 0.998932
CRC32 hash (test run) : 2596D07B
CRC32 hash : 2596D07B
CRC32 hash (skip zero) : AB531317
AccurateRip signature : 0C93D4B1
->Accurately ripped! (confidence 4)
Statistics
Read error : 0
Skipped (treated as error) : 0
Edge jitter error (maybe fixed) : 0
Atom jitter error (maybe fixed) : 0
Drift error (maybe fixed) : 0
Dropped bytes error (maybe fixed) : 0
Duplicated bytes error (maybe fixed) : 0
Inconsistency in error sectors : 0

Track 05
Filename : /Users/sigchill/Music/XLD/Detritus/2007 - Fractured/05 - Shifts.flac

Pre-gap length : 00:03:00

Track gain : -9.22 dB
Peak : 0.999023
CRC32 hash (test run) : 90916FC6
CRC32 hash : 90916FC6
CRC32 hash (skip zero) : DDF1CC02
AccurateRip signature : 776A2586
->Accurately ripped! (confidence 4)
Statistics
Read error : 0
Skipped (treated as error) : 0
Edge jitter error (maybe fixed) : 0
Atom jitter error (maybe fixed) : 0
Drift error (maybe fixed) : 0
Dropped bytes error (maybe fixed) : 0
Duplicated bytes error (maybe fixed) : 0
Inconsistency in error sectors : 0

Track 06
Filename : /Users/sigchill/Music/XLD/Detritus/2007 - Fractured/06 - Lethe.flac

Pre-gap length : 00:03:00

Track gain : -6.04 dB
Peak : 0.793091
CRC32 hash (test run) : F19281CB
CRC32 hash : F19281CB
CRC32 hash (skip zero) : 69453DF5
AccurateRip signature : F02221AC
->Accurately ripped! (confidence 4)
Statistics
Read error : 0
Skipped (treated as error) : 0
Edge jitter error (maybe fixed) : 0
Atom jitter error (maybe fixed) : 0
Drift error (maybe fixed) : 0
Dropped bytes error (maybe fixed) : 0
Duplicated bytes error (maybe fixed) : 0
Inconsistency in error sectors : 0

Track 07
Filename : /Users/sigchill/Music/XLD/Detritus/2007 - Fractured/07 - Diolch.flac

Pre-gap length : 00:03:00

Track gain : -8.49 dB
Peak : 0.999817
CRC32 hash (test run) : B6C8D330
CRC32 hash : B6C8D330
CRC32 hash (skip zero) : 5A042A7A
AccurateRip signature : 810CD319
->Accurately ripped! (confidence 4)
Statistics
Read error : 0
Skipped (treated as error) : 0
Edge jitter error (maybe fixed) : 0
Atom jitter error (maybe fixed) : 0
Drift error (maybe fixed) : 0
Dropped bytes error (maybe fixed) : 0
Duplicated bytes error (maybe fixed) : 0
Inconsistency in error sectors : 0

Track 08
Filename : /Users/sigchill/Music/XLD/Detritus/2007 - Fractured/08 - Interrupted.flac

Pre-gap length : 00:03:00

Track gain : -6.32 dB
Peak : 1.000000
CRC32 hash (test run) : B647641E
CRC32 hash : B647641E
CRC32 hash (skip zero) : AF15687E
AccurateRip signature : 9DDAD675
->Accurately ripped! (confidence 4)
Statistics
Read error : 0
Skipped (treated as error) : 0
Edge jitter error (maybe fixed) : 0
Atom jitter error (maybe fixed) : 0
Drift error (maybe fixed) : 0
Dropped bytes error (maybe fixed) : 0
Duplicated bytes error (maybe fixed) : 0
Inconsistency in error sectors : 0

Track 09
Filename : /Users/sigchill/Music/XLD/Detritus/2007 - Fractured/09 - Dancing On Moonbeans.flac

Pre-gap length : 00:03:00

Track gain : -5.90 dB
Peak : 1.000000
CRC32 hash (test run) : 0B70D4D5
CRC32 hash : 0B70D4D5
CRC32 hash (skip zero) : 96E4E50F
AccurateRip signature : 23E8D10C
->Accurately ripped! (confidence 4)
Statistics
Read error : 0
Skipped (treated as error) : 0
Edge jitter error (maybe fixed) : 0
Atom jitter error (maybe fixed) : 0
Drift error (maybe fixed) : 0
Dropped bytes error (maybe fixed) : 0
Duplicated bytes error (maybe fixed) : 0
Inconsistency in error sectors : 0

Track 10
Filename : /Users/sigchill/Music/XLD/Detritus/2007 - Fractured/10 - Interrupted (DJ Hidden Remix).flac

Pre-gap length : 00:03:00

Track gain : -7.42 dB
Peak : 1.000000
CRC32 hash (test run) : 8DBF3AE4
CRC32 hash : 8DBF3AE4
CRC32 hash (skip zero) : 674A39D1
AccurateRip signature : 08CF7996
->Accurately ripped! (confidence 4)
Statistics
Read error : 0
Skipped (treated as error) : 0
Edge jitter error (maybe fixed) : 0
Atom jitter error (maybe fixed) : 0
Drift error (maybe fixed) : 0
Dropped bytes error (maybe fixed) : 0
Duplicated bytes error (maybe fixed) : 0
Inconsistency in error sectors : 0

Track 11
Filename : /Users/sigchill/Music/XLD/Detritus/2007 - Fractured/11 - Dancing On Moonbeans (Weeping Mix By Keef Baker).flac

Pre-gap length : 00:03:00

Track gain : -8.56 dB
Peak : 1.000000
CRC32 hash (test run) : 449632B9
CRC32 hash : 449632B9
CRC32 hash (skip zero) : F0353812
AccurateRip signature : 0A8E49B9
->Accurately ripped! (confidence 4)
Statistics
Read error : 0
Skipped (treated as error) : 0
Edge jitter error (maybe fixed) : 0
Atom jitter error (maybe fixed) : 0
Drift error (maybe fixed) : 0
Dropped bytes error (maybe fixed) : 0
Duplicated bytes error (maybe fixed) : 0
Inconsistency in error sectors : 0

No errors occurred

End of status report


TITLE "Fractured"
PERFORMER "Detritus"
REM GENRE "Breaks/Drum n Bass/Downtempo"
REM DATE "2007-10-13"
REM DISCID A90C6B0B
REM REPLAYGAIN_ALBUM_GAIN -8.33 dB
REM REPLAYGAIN_ALBUM_PEAK 1.000000
FILE "01 - Desolate (5-HTP Mix).wav" WAVE
TRACK 01 AUDIO
TITLE "Desolate (5-HTP Mix)"
REM REPLAYGAIN_TRACK_GAIN -8.80 dB
REM REPLAYGAIN_TRACK_PEAK 0.987305
INDEX 01 00:00:00
TRACK 02 AUDIO
TITLE "Collide"
REM REPLAYGAIN_TRACK_GAIN -9.27 dB
REM REPLAYGAIN_TRACK_PEAK 0.993652
INDEX 00 04:23:40
FILE "02 - Collide.wav" WAVE
INDEX 01 00:00:00
TRACK 03 AUDIO
TITLE "Detrimental"
REM REPLAYGAIN_TRACK_GAIN -7.42 dB
REM REPLAYGAIN_TRACK_PEAK 0.997162
INDEX 00 03:25:71
FILE "03 - Detrimental.wav" WAVE
INDEX 01 00:00:00
TRACK 04 AUDIO
TITLE "Inside Blue Ice"
REM REPLAYGAIN_TRACK_GAIN -6.67 dB
REM REPLAYGAIN_TRACK_PEAK 0.998932
INDEX 00 05:15:16
FILE "04 - Inside Blue Ice.wav" WAVE
INDEX 01 00:00:00
TRACK 05 AUDIO
TITLE "Shifts"
REM REPLAYGAIN_TRACK_GAIN -9.22 dB
REM REPLAYGAIN_TRACK_PEAK 0.999023
INDEX 00 03:47:21
FILE "05 - Shifts.wav" WAVE
INDEX 01 00:00:00
TRACK 06 AUDIO
TITLE "Lethe"
REM REPLAYGAIN_TRACK_GAIN -6.04 dB
REM REPLAYGAIN_TRACK_PEAK 0.793091
INDEX 00 04:04:61
FILE "06 - Lethe.wav" WAVE
INDEX 01 00:00:00
TRACK 07 AUDIO
TITLE "Diolch"
REM REPLAYGAIN_TRACK_GAIN -8.49 dB
REM REPLAYGAIN_TRACK_PEAK 0.999817
INDEX 00 05:41:66
FILE "07 - Diolch.wav" WAVE
INDEX 01 00:00:00
TRACK 08 AUDIO
TITLE "Interrupted"
REM REPLAYGAIN_TRACK_GAIN -6.32 dB
REM REPLAYGAIN_TRACK_PEAK 1.000000
INDEX 00 03:42:18
FILE "08 - Interrupted.wav" WAVE
INDEX 01 00:00:00
TRACK 09 AUDIO
TITLE "Dancing On Moonbeans"
REM REPLAYGAIN_TRACK_GAIN -5.90 dB
REM REPLAYGAIN_TRACK_PEAK 1.000000
INDEX 00 05:49:52
FILE "09 - Dancing On Moonbeans.wav" WAVE
INDEX 01 00:00:00
TRACK 10 AUDIO
TITLE "Interrupted (DJ Hidden Remix)"
REM REPLAYGAIN_TRACK_GAIN -7.42 dB
REM REPLAYGAIN_TRACK_PEAK 1.000000
INDEX 00 05:28:35
FILE "10 - Interrupted (DJ Hidden Remix).wav" WAVE
INDEX 01 00:00:00
TRACK 11 AUDIO
TITLE "Dancing On Moonbeans (Weeping Mix By Keef Baker)"
REM REPLAYGAIN_TRACK_GAIN -8.56 dB
REM REPLAYGAIN_TRACK_PEAK 1.000000
INDEX 00 06:04:57
FILE "11 - Dancing On Moonbeans (Weeping Mix By Keef Baker).wav" WAVE
INDEX 01 00:00:00

Год выпуска: 2009
Продолжительность: 00:51:21
Треклист:

01. Left Behind (04:28)
02. Archipelago (04:21)
03. Things Gone Wrong (03:17)
04. Breaking Eggshells (03:34)
05. Fields Of Dead Leaves (03:22)
06. Haunted (04:02)
07. Entropy (03:09)
08. Ghostwritten (03:34)
09. Bookburner (03:42)
10. Details (03:20)
11. Drift (04:26)
12. Beautiful People Die (Remix By Mothboy) (05:23)
13. Haunted (Remix By Niveau Zero) (04:43)

Exact Audio Copy V0.99 prebeta 5 from 4. May 2009

EAC extraction logfile from 3. November 2009, 21:35

Detritus / Things Gone Wrong

Used drive : HL-DT-STDVDRAM GH15F Adapter: 3 ID: 3

Read mode : Secure
Utilize accurate stream : Yes
Defeat audio cache : Yes
Make use of C2 pointers : No

Read offset correction : 667
Overread into Lead-In and Lead-Out : No
Fill up missing offset samples with silence : Yes
Delete leading and trailing silent blocks : No
Null samples used in CRC calculations : Yes
Used interface : Native Win32 interface for Win NT & 2000
Gap handling : Appended to previous track

Used output format : User Defined Encoder
Selected bitrate : 320 kBit/s
Quality : High
Add ID3 tag : No
Command line compressor : C:\Program Files\Exact Audio Copy\Flac\flac.exe
Additional command line options : -V -8 -T "artist=%a" -T "title=%t" -T "album=%g" -T "date=%y" -T "tracknumber=%n" -T "genre=%m" %s

TOC of the extracted CD

Track | Start | Length | Start sector | End sector
---------------------------------------------------------
1 | 0:00.00 | 4:27.58 | 0 | 20082
2 | 4:27.58 | 4:21.27 | 20083 | 39684
3 | 8:49.10 | 3:16.59 | 39685 | 54443
4 | 12:05.69 | 3:34.04 | 54444 | 70497
5 | 15:39.73 | 3:21.39 | 70498 | 85611
6 | 19:01.37 | 4:01.41 | 85612 | 103727
7 | 23:03.03 | 3:08.71 | 103728 | 117898
8 | 26:11.74 | 3:34.20 | 117899 | 133968
9 | 29:46.19 | 3:41.40 | 133969 | 150583
10 | 33:27.59 | 3:20.33 | 150584 | 165616
11 | 36:48.17 | 4:26.13 | 165617 | 185579
12 | 41:14.30 | 5:23.37 | 185580 | 209841
13 | 46:37.67 | 4:43.08 | 209842 | 231074

Track 1

Filename D:\EAC rips\Detritus - 2009 - Things Gone Wrong\01 - Left Behind.wav

Pre-gap length 0:00:02.00

Peak level 98.6 %
Track quality 100.0 %
Test CRC 50CDF7B9
Copy CRC 50CDF7B9
Track not present in AccurateRip database
Copy OK

Track 2

Filename D:\EAC rips\Detritus - 2009 - Things Gone Wrong\02 - Archipelago.wav

Pre-gap length 0:00:02.00

Peak level 98.6 %
Track quality 100.0 %
Test CRC FD65B34F
Copy CRC FD65B34F
Track not present in AccurateRip database
Copy OK

Track 3

Filename D:\EAC rips\Detritus - 2009 - Things Gone Wrong\03 - Things Gone Wrong.wav

Pre-gap length 0:00:02.00

Peak level 98.6 %
Track quality 100.0 %
Test CRC 5721D3D2
Copy CRC 5721D3D2
Track not present in AccurateRip database
Copy OK

Track 4

Filename D:\EAC rips\Detritus - 2009 - Things Gone Wrong\04 - Breaking Eggshells.wav

Pre-gap length 0:00:02.00

Peak level 98.6 %
Track quality 100.0 %
Test CRC EC5C534F
Copy CRC EC5C534F
Track not present in AccurateRip database
Copy OK

Track 5

Filename D:\EAC rips\Detritus - 2009 - Things Gone Wrong\05 - Fields Of Dead Leaves.wav

Pre-gap length 0:00:02.00

Peak level 86.5 %
Track quality 100.0 %
Test CRC 3A799BED
Copy CRC 3A799BED
Track not present in AccurateRip database
Copy OK

Track 6

Filename D:\EAC rips\Detritus - 2009 - Things Gone Wrong\06 - Haunted.wav

Pre-gap length 0:00:02.00

Peak level 98.6 %
Track quality 100.0 %
Test CRC 9F3E2473
Copy CRC 9F3E2473
Track not present in AccurateRip database
Copy OK

Track 7

Filename D:\EAC rips\Detritus - 2009 - Things Gone Wrong\07 - Entropy.wav

Pre-gap length 0:00:02.00

Peak level 98.6 %
Track quality 99.9 %
Test CRC 8106BE80
Copy CRC 8106BE80
Track not present in AccurateRip database
Copy OK

Track 8

Filename D:\EAC rips\Detritus - 2009 - Things Gone Wrong\08 - Ghostwritten.wav

Pre-gap length 0:00:02.00

Peak level 98.6 %
Track quality 100.0 %
Test CRC 12335A0D
Copy CRC 12335A0D
Track not present in AccurateRip database
Copy OK

Track 9

Filename D:\EAC rips\Detritus - 2009 - Things Gone Wrong\09 - Bookburner.wav

Pre-gap length 0:00:02.00

Peak level 98.6 %
Track quality 100.0 %
Test CRC 0EC7E392
Copy CRC 0EC7E392
Track not present in AccurateRip database
Copy OK

Track 10

Filename D:\EAC rips\Detritus - 2009 - Things Gone Wrong\10 - Details.wav

Pre-gap length 0:00:02.00

Peak level 98.6 %
Track quality 100.0 %
Test CRC 80B5C078
Copy CRC 80B5C078
Track not present in AccurateRip database
Copy OK

Track 11

Filename D:\EAC rips\Detritus - 2009 - Things Gone Wrong\11 - Drift.wav

Pre-gap length 0:00:02.00

Peak level 98.6 %
Track quality 100.0 %
Test CRC F3CC3E4D
Copy CRC F3CC3E4D
Track not present in AccurateRip database
Copy OK

Track 12

Filename D:\EAC rips\Detritus - 2009 - Things Gone Wrong\12 - Beautiful People Die (Remix by Mothboy).wav

Pre-gap length 0:00:02.00

Peak level 98.6 %
Track quality 100.0 %
Test CRC 066FB1DE
Copy CRC 066FB1DE
Track not present in AccurateRip database
Copy OK

Track 13

Filename D:\EAC rips\Detritus - 2009 - Things Gone Wrong\13 - Haunted (Remix by Niveau Zero).wav

Pre-gap length 0:00:02.00

Peak level 98.6 %
Track quality 100.0 %
Test CRC CC36EAA3
Copy CRC CC36EAA3
Track not present in AccurateRip database
Copy OK

None of the tracks are present in the AccurateRip database

No errors occurred

End of status report


REM GENRE Industrial
REM DATE 2009
REM DISCID BA0C090D
REM COMMENT "ExactAudioCopy v0.99pb5"
PERFORMER "Detritus"
TITLE "Things Gone Wrong"
FILE "01 - Left Behind.wav" WAVE
TRACK 01 AUDIO
TITLE "Left Behind"
PERFORMER "Detritus"
FLAGS DCP
INDEX 01 00:00:00
TRACK 02 AUDIO
TITLE "Archipelago"
PERFORMER "Detritus"
FLAGS DCP
INDEX 00 04:25:58
FILE "02 - Archipelago.wav" WAVE
INDEX 01 00:00:00
TRACK 03 AUDIO
TITLE "Things Gone Wrong"
PERFORMER "Detritus"
FLAGS DCP
INDEX 00 04:19:27
FILE "03 - Things Gone Wrong.wav" WAVE
INDEX 01 00:00:00
TRACK 04 AUDIO
TITLE "Breaking Eggshells"
PERFORMER "Detritus"
FLAGS DCP
INDEX 00 03:14:59
FILE "04 - Breaking Eggshells.wav" WAVE
INDEX 01 00:00:00
TRACK 05 AUDIO
TITLE "Fields Of Dead Leaves"
PERFORMER "Detritus"
FLAGS DCP
INDEX 00 03:32:04
FILE "05 - Fields Of Dead Leaves.wav" WAVE
INDEX 01 00:00:00
TRACK 06 AUDIO
TITLE "Haunted"
PERFORMER "Detritus"
FLAGS DCP
INDEX 00 03:19:39
FILE "06 - Haunted.wav" WAVE
INDEX 01 00:00:00
TRACK 07 AUDIO
TITLE "Entropy"
PERFORMER "Detritus"
FLAGS DCP
INDEX 00 03:59:41
FILE "07 - Entropy.wav" WAVE
INDEX 01 00:00:00
TRACK 08 AUDIO
TITLE "Ghostwritten"
PERFORMER "Detritus"
FLAGS DCP
INDEX 00 03:06:71
FILE "08 - Ghostwritten.wav" WAVE
INDEX 01 00:00:00
TRACK 09 AUDIO
TITLE "Bookburner"
PERFORMER "Detritus"
FLAGS DCP
INDEX 00 03:32:20
FILE "09 - Bookburner.wav" WAVE
INDEX 01 00:00:00
TRACK 10 AUDIO
TITLE "Details"
PERFORMER "Detritus"
FLAGS DCP
INDEX 00 03:39:40
FILE "10 - Details.wav" WAVE
INDEX 01 00:00:00
TRACK 11 AUDIO
TITLE "Drift"
PERFORMER "Detritus"
FLAGS DCP
INDEX 00 03:18:33
FILE "11 - Drift.wav" WAVE
INDEX 01 00:00:00
TRACK 12 AUDIO
TITLE "Beautiful People Die (Remix by Mothboy)"
PERFORMER "Detritus"
FLAGS DCP
INDEX 00 04:24:13
FILE "12 - Beautiful People Die (Remix by Mothboy).wav" WAVE
INDEX 01 00:00:00
TRACK 13 AUDIO
TITLE "Haunted (Remix by Niveau Zero)"
PERFORMER "Detritus"
FLAGS DCP
INDEX 00 05:21:37
FILE "13 - Haunted (Remix by Niveau Zero).wav" WAVE
INDEX 01 00:00:00

Год выпуска: 2011
Продолжительность: 00:53:53
Треклист:

01. Scattered (03:50)
02. Reality Steps (04:40)
03. Divides (05:29)
04. Mimesis (03:46)
05. Before & After (03:31)
06. Orchid (04:25)
07. It's Nice To See The Sky (07:44)
08. Flashbulb Moment (04:13)
09. Valid (05:19)
10. Day (04:18)
11. Divides (Remix By Subheim) (06:38)

Exact Audio Copy V1.0 beta 2 from 29. April 2011

EAC extraction logfile from 27. October 2011, 0:33

Detritus / everyday explanations

Used drive : hp CDDVDW TS-L633N Adapter: 0 ID: 1

Read mode : Secure
Utilize accurate stream : Yes
Defeat audio cache : Yes
Make use of C2 pointers : No

Read offset correction : 6
Overread into Lead-In and Lead-Out : No
Fill up missing offset samples with silence : Yes
Delete leading and trailing silent blocks : No
Null samples used in CRC calculations : Yes
Used interface : Native Win32 interface for Win NT & 2000
Gap handling : Appended to previous track

Used output format : User Defined Encoder
Selected bitrate : 1024 kBit/s
Quality : High
Add ID3 tag : No
Command line compressor : C:\Program Files (x86)\Exact Audio Copy\FLAC\FLAC.EXE
Additional command line options : -8 -V -T "ARTIST=%artist%" -T "TITLE=%title%" -T "ALBUM=%albumtitle%" -T "DATE=%year%" -T "TRACKNUMBER=%tracknr%" -T "GENRE=%genre%" -T "PERFORMER=%albuminterpret%" -T "COMPOSER=%composer%" %haslyrics%--tag-from-file=LYRICS

TOC of the extracted CD

Track | Start | Length | Start sector | End sector
---------------------------------------------------------
1 | 0:00.00 | 3:50.33 | 0 | 17282
2 | 3:50.33 | 4:40.33 | 17283 | 38315
3 | 8:30.66 | 5:28.65 | 38316 | 62980
4 | 13:59.56 | 3:46.14 | 62981 | 79944
5 | 17:45.70 | 3:31.35 | 79945 | 95804
6 | 21:17.30 | 4:24.64 | 95805 | 115668
7 | 25:42.19 | 7:44.13 | 115669 | 150481
8 | 33:26.32 | 4:12.49 | 150482 | 169430
9 | 37:39.06 | 5:18.41 | 169431 | 193321
10 | 42:57.47 | 4:17.67 | 193322 | 212663
11 | 47:15.39 | 6:38.09 | 212664 | 242522

Track 1

Filename C:\detritus - 2011 - everyday explanations - flac\01 - Scattered.wav

Pre-gap length 0:00:02.00

Peak level 96.6 %
Extraction speed 2.2 X
Track quality 100.0 %
Test CRC 509DDEED
Copy CRC 509DDEED
Track not present in AccurateRip database
Copy OK

Track 2

Filename C:\detritus - 2011 - everyday explanations - flac\02 - Reality Steps.wav

Pre-gap length 0:00:02.00

Peak level 96.6 %
Extraction speed 2.5 X
Track quality 100.0 %
Test CRC 1A49B7EC
Copy CRC 1A49B7EC
Track not present in AccurateRip database
Copy OK

Track 3

Filename C:\detritus - 2011 - everyday explanations - flac\03 - Divides.wav

Pre-gap length 0:00:02.00

Peak level 91.2 %
Extraction speed 2.9 X
Track quality 100.0 %
Test CRC 9F9573B7
Copy CRC 9F9573B7
Track not present in AccurateRip database
Copy OK

Track 4

Filename C:\detritus - 2011 - everyday explanations - flac\04 - Mimesis.wav

Pre-gap length 0:00:02.00

Peak level 88.1 %
Extraction speed 2.9 X
Track quality 100.0 %
Test CRC 90A7D7C8
Copy CRC 90A7D7C8
Track not present in AccurateRip database
Copy OK

Track 5

Filename C:\detritus - 2011 - everyday explanations - flac\05 - Before & After.wav

Pre-gap length 0:00:02.00

Peak level 81.3 %
Extraction speed 2.4 X
Track quality 99.9 %
Test CRC 7844B924
Copy CRC 7844B924
Track not present in AccurateRip database
Copy OK

Track 6

Filename C:\detritus - 2011 - everyday explanations - flac\06 - Orchid.wav

Pre-gap length 0:00:02.00

Peak level 91.2 %
Extraction speed 3.3 X
Track quality 100.0 %
Test CRC A2D51FA4
Copy CRC A2D51FA4
Track not present in AccurateRip database
Copy OK

Track 7

Filename C:\detritus - 2011 - everyday explanations - flac\07 - It's Nice To See The Sky.wav

Pre-gap length 0:00:02.00

Peak level 78.5 %
Extraction speed 3.7 X
Track quality 100.0 %
Test CRC 9C26B2C5
Copy CRC 9C26B2C5
Track not present in AccurateRip database
Copy OK

Track 8

Filename C:\detritus - 2011 - everyday explanations - flac\08 - Flashbulb Moment.wav

Pre-gap length 0:00:02.00

Peak level 96.6 %
Extraction speed 2.8 X
Track quality 99.9 %
Test CRC 3B30F7AF
Copy CRC 3B30F7AF
Track not present in AccurateRip database
Copy OK

Track 9

Filename C:\detritus - 2011 - everyday explanations - flac\09 - Valid.wav

Pre-gap length 0:00:02.00

Peak level 96.6 %
Extraction speed 3.7 X
Track quality 100.0 %
Test CRC A4437A5B
Copy CRC A4437A5B
Track not present in AccurateRip database
Copy OK

Track 10

Filename C:\detritus - 2011 - everyday explanations - flac\10 - Day.wav

Pre-gap length 0:00:02.00

Peak level 86.1 %
Extraction speed 3.7 X
Track quality 100.0 %
Test CRC 45786E84
Copy CRC 45786E84
Track not present in AccurateRip database
Copy OK

Track 11

Filename C:\detritus - 2011 - everyday explanations - flac\11 - Divides (remix by Subheim).wav

Pre-gap length 0:00:02.00

Peak level 96.6 %
Extraction speed 4.1 X
Track quality 100.0 %
Test CRC DA82F5F4
Copy CRC DA82F5F4
Track not present in AccurateRip database
Copy OK

None of the tracks are present in the AccurateRip database

No errors occurred

End of status report

---- CUETools DB Plugin V2.1.2

[CTDB TOCID: uU3eYkvGd0BhA4JFequThE2Kud4-] disk not present in database, Submit result: uU3eYkvGd0BhA4JFequThE2Kud4- has been uploaded

==== Log checksum BB2AF932B96DB65DDF45AEE73C4524D6ABB2523E74E65392038907E76AE17A27 ====


REM GENRE Electronic
REM DATE 2011
REM DISCID 8D0CA10B
REM COMMENT "ExactAudioCopy v1.0b2"
PERFORMER "Detritus"
TITLE "everyday explanations"
FILE "01 - Scattered.wav" WAVE
TRACK 01 AUDIO
TITLE "Scattered"
PERFORMER "Detritus"
INDEX 01 00:00:00
TRACK 02 AUDIO
TITLE "Reality Steps"
PERFORMER "Detritus"
INDEX 00 03:48:33
FILE "02 - Reality Steps.wav" WAVE
INDEX 01 00:00:00
TRACK 03 AUDIO
TITLE "Divides"
PERFORMER "Detritus"
INDEX 00 04:38:33
FILE "03 - Divides.wav" WAVE
INDEX 01 00:00:00
TRACK 04 AUDIO
TITLE "Mimesis"
PERFORMER "Detritus"
INDEX 00 05:26:65
FILE "04 - Mimesis.wav" WAVE
INDEX 01 00:00:00
TRACK 05 AUDIO
TITLE "Before & After"
PERFORMER "Detritus"
INDEX 00 03:44:14
FILE "05 - Before & After.wav" WAVE
INDEX 01 00:00:00
TRACK 06 AUDIO
TITLE "Orchid"
PERFORMER "Detritus"
INDEX 00 03:29:35
FILE "06 - Orchid.wav" WAVE
INDEX 01 00:00:00
TRACK 07 AUDIO
TITLE "It's Nice To See The Sky"
PERFORMER "Detritus"
INDEX 00 04:22:64
FILE "07 - It's Nice To See The Sky.wav" WAVE
INDEX 01 00:00:00
TRACK 08 AUDIO
TITLE "Flashbulb Moment"
PERFORMER "Detritus"
INDEX 00 07:42:13
FILE "08 - Flashbulb Moment.wav" WAVE
INDEX 01 00:00:00
TRACK 09 AUDIO
TITLE "Valid"
PERFORMER "Detritus"
INDEX 00 04:10:49
FILE "09 - Valid.wav" WAVE
INDEX 01 00:00:00
TRACK 10 AUDIO
TITLE "Day"
PERFORMER "Detritus"
INDEX 00 05:16:41
FILE "10 - Day.wav" WAVE
INDEX 01 00:00:00
TRACK 11 AUDIO
TITLE "Divides (remix by Subheim)"
PERFORMER "Detritus"
INDEX 00 04:15:67
FILE "11 - Divides (remix by Subheim).wav" WAVE
INDEX 01 00:00:00

Год выпуска: 2014
Продолжительность: 00:50:28
Треклист:

01. Bind (04:02)
02. The Very Idea (03:46)
03. Steep (04:20)
04. Egress (03:46)
05. Blinding (03:49)
06. Radial (07:31)
07. After (05:10)
08. More Than Half (04:25)
09. Bane (06:21)
10. Secession (03:41)
11. After (Remix By Poordream) (03:37)

-----------------------

DON'T MODIFY THIS FILE

-----------------------

PERFORMER: auCDtect Task Manager, ver. 1.5.1RC6 build 1.5.1.7
Copyright (c) 2008-2010 y-soft. All rights reserved
http://y-soft.org

ANALYZER: auCDtect: CD records authenticity detector, version 0.8.2
Copyright (c) 2004 Oleg Berngardt. All rights reserved.
Copyright (c) 2004 Alexander Djourik. All rights reserved.

FILE: 03. Steep.flac
Size: 25672810 Hash: B91B7BC6FA7BD66B16D695070712519C Accuracy: -m0
Conclusion: CDDA 100%
Signature: B41B93CA6B282CD9F5D362B1B13014240F1F41FE
FILE: 02. The Very Idea.flac
Size: 23834793 Hash: 01C14F9EABA0B978170345758F7DA987 Accuracy: -m0
Conclusion: CDDA 76%
Signature: B346CD48B96FF3EDD6E3D5902EE981D97F74647F
FILE: 01. Bind.flac
Size: 28479337 Hash: 16E88BEC12CD4C8D03B686E7C416D798 Accuracy: -m0
Conclusion: CDDA 99%
Signature: 30258214A8422804C42D1B527C899A4811263A2D
FILE: 11. After (Remix by Poordream).flac
Size: 22053096 Hash: 7A101C52E3F32B00C3B692C8A693A5DD Accuracy: -m0
Conclusion: CDDA 100%
Signature: 9C236804CA5B5F7EAF835FC49BE006E202B1587E
FILE: 10. Secession.flac
Size: 22865533 Hash: 629E1AC9950F4CE7231C82DA7A3B2BDF Accuracy: -m0
Conclusion: MPEG 80%
Signature: 9D71C665CEACA659114AD97D4B1C22085188F6EC
FILE: 09. Bane.flac
Size: 43022706 Hash: F6B90E9F09FBE0939A7B0D77C9A802E7 Accuracy: -m0
Conclusion: CDDA 100%
Signature: 5FB0BAEAAE58AF7DEF2AA70D21E48916DE0A844D
FILE: 08. More Than Half.flac
Size: 23271594 Hash: CB37A2FF72CD89105D9E05A614975FC5 Accuracy: -m0
Conclusion: CDDA 100%
Signature: 95C0301F8255F39E593F77E8AC4B0FB7E6D22620
FILE: 07. After.flac
Size: 33967060 Hash: 2BC779953C1AFCB9D3043BECCA39BF83 Accuracy: -m0
Conclusion: CDDA 92%
Signature: 86BA4B7B287622F84907F0A8840DDC7D296E0BAD
FILE: 06. Radial.flac
Size: 51117992 Hash: 91EFFFE7601FE515251DFC5D4145D925 Accuracy: -m0
Conclusion: CDDA 100%
Signature: A50604BD0D2CE59C260898648169BE00C2B329DF
FILE: 05. Blinding.flac
Size: 24831247 Hash: 314DEF3EC0241F119F1E3C9EF94E2C03 Accuracy: -m0
Conclusion: CDDA 100%
Signature: B42E35197D7F664A5FEB46C9EC9A2A2D3713E5B8
FILE: 04. Egress.flac
Size: 23083904 Hash: 93595C16318046B53C1E1C342159CD7B Accuracy: -m0
Conclusion: CDDA 100%
Signature: 89BECFF60A82DAFF6B732168719379D279CAE95B

Год выпуска: 2009
Продолжительность: 00:42:05
Треклист:

01. Home (04:54)
02. Little Black Cloud (04:12)
03. I'm Always Writing Endings (03:38)
04. Your Rain Isn't My Rain (03:23)
05. Leaves (04:03)
06. One Take Away One (04:13)
07. Faerie Photo (03:05)
08. Beginnings And Endings (05:47)
09. Waking (02:41)
10. A Wake A Week (06:09)

Exact Audio Copy V0.99 prebeta 4 from 23. January 2008

EAC extraction logfile from 1. April 2009, 21:24

A Wake A Week / Little Black Cloud

Used drive : _NEC DVD_RW ND-3550A Adapter: 0 ID: 0

Read mode : Secure
Utilize accurate stream : Yes
Defeat audio cache : Yes
Make use of C2 pointers : No

Read offset correction : 48
Overread into Lead-In and Lead-Out : No
Fill up missing offset samples with silence : Yes
Delete leading and trailing silent blocks : No
Null samples used in CRC calculations : Yes
Used interface : Installed external ASPI interface
Gap handling : Appended to previous track

Used output format : User Defined Encoder
Selected bitrate : 1024 kBit/s
Quality : High
Add ID3 tag : No
Command line compressor : D:\Programs\Tools\_Exact Audio Copy\FLAC\FLAC.EXE
Additional command line options : -8 -V -T "ARTIST=%a" -T "TITLE=%t" -T "ALBUM=%g" -T "DATE=%y" -T "TRACKNUMBER=%n" -T "GENRE=%m" -T "COMMENT=%e" %s -o %d

TOC of the extracted CD

Track | Start | Length | Start sector| End sector
--------------------------------------------------------
1 | 0:00.00 | 4:54.03 | 0 | 22052
2 | 4:54.03 | 4:12.13 | 22053 | 40965
3 | 9:06.16 | 3:37.38 | 40966 | 57278
4 | 12:43.54 | 3:22.56 | 57279 | 72484
5 | 16:06.35 | 4:02.39 | 72485 | 90673
6 | 20:08.74 | 4:13.04 | 90674 | 109652
7 | 24:22.03 | 3:05.23 | 109653 | 123550
8 | 27:27.26 | 5:47.25 | 123551 | 149600
9 | 33:14.51 | 2:41.29 | 149601 | 161704
10 | 35:56.05 | 6:08.70 | 161705 | 189374

Track 1

Filename D:\A Wake A Week - Little Black Cloud\01 Home.wav

Pre-gap length 0:00:02.00

Peak level 99.8 %
Track quality 100.0 %
Test CRC B62A53A7
Copy CRC B62A53A7
Track not present in AccurateRip database
Copy OK

Track 2

Filename D:\A Wake A Week - Little Black Cloud\02 Little Black Cloud.wav

Peak level 99.8 %
Track quality 100.0 %
Test CRC DEDBF2ED
Copy CRC DEDBF2ED
Track not present in AccurateRip database
Copy OK

Track 3

Filename D:\A Wake A Week - Little Black Cloud\03 I'm Always Writing Endings.wav

Peak level 99.8 %
Track quality 99.9 %
Test CRC B5F0A486
Copy CRC B5F0A486
Track not present in AccurateRip database
Copy OK

Track 4

Filename D:\A Wake A Week - Little Black Cloud\04 Your Rain Isn't My Rain.wav

Peak level 99.9 %
Track quality 100.0 %
Test CRC D2CBE805
Copy CRC D2CBE805
Track not present in AccurateRip database
Copy OK

Track 5

Filename D:\A Wake A Week - Little Black Cloud\05 Leaves.wav

Peak level 99.8 %
Track quality 100.0 %
Test CRC 3E31F92B
Copy CRC 3E31F92B
Track not present in AccurateRip database
Copy OK

Track 6

Filename D:\A Wake A Week - Little Black Cloud\06 One Take Away One.wav

Peak level 99.8 %
Track quality 100.0 %
Test CRC BF690671
Copy CRC BF690671
Track not present in AccurateRip database
Copy OK

Track 7

Filename D:\A Wake A Week - Little Black Cloud\07 Faerie Photo.wav

Peak level 99.8 %
Track quality 99.9 %
Test CRC 8445BBE4
Copy CRC 8445BBE4
Track not present in AccurateRip database
Copy OK

Track 8

Filename D:\A Wake A Week - Little Black Cloud\08 Beginnings And Endings.wav

Peak level 99.8 %
Track quality 99.9 %
Test CRC 4C49305A
Copy CRC 4C49305A
Track not present in AccurateRip database
Copy OK

Track 9

Filename D:\A Wake A Week - Little Black Cloud\09 Waking.wav

Peak level 88.5 %
Track quality 99.9 %
Test CRC BFC7D0DA
Copy CRC BFC7D0DA
Track not present in AccurateRip database
Copy OK

Track 10

Filename D:\A Wake A Week - Little Black Cloud\10 A Wake A Week.wav

Peak level 99.8 %
Track quality 99.9 %
Test CRC 81117B36
Copy CRC 81117B36
Track not present in AccurateRip database
Copy OK

None of the tracks are present in the AccurateRip database

No errors occurred

End of status report


REM GENRE Classical, Neo-Classical, Soundtrack, Ambient, Downtempo, Experimental
REM DATE 2009
REM DISCID 9D09DD0A
REM COMMENT ExactAudioCopy v0.99pb4
PERFORMER "A Wake A Week"
TITLE "Little Black Cloud"
FILE "01 Home.flac" WAVE
TRACK 01 AUDIO
TITLE "Home"
INDEX 01 00:00:00
FILE "02 Little Black Cloud.flac" WAVE
TRACK 02 AUDIO
TITLE "Little Black Cloud"
INDEX 01 00:00:00
FILE "03 I'm Always Writing Endings.flac" WAVE
TRACK 03 AUDIO
TITLE "I'm Always Writing Endings"
INDEX 01 00:00:00
FILE "04 Your Rain Isn't My Rain.flac" WAVE
TRACK 04 AUDIO
TITLE "Your Rain Isn't My Rain"
INDEX 01 00:00:00
FILE "05 Leaves.flac" WAVE
TRACK 05 AUDIO
TITLE "Leaves"
INDEX 01 00:00:00
FILE "06 One Take Away One.flac" WAVE
TRACK 06 AUDIO
TITLE "One Take Away One"
INDEX 01 00:00:00
FILE "07 Faerie Photo.flac" WAVE
TRACK 07 AUDIO
TITLE "Faerie Photo"
INDEX 01 00:00:00
FILE "08 Beginnings And Endings.flac" WAVE
TRACK 08 AUDIO
TITLE "Beginnings And Endings"
INDEX 01 00:00:00
FILE "09 Waking.flac" WAVE
TRACK 09 AUDIO
TITLE "Waking"
INDEX 01 00:00:00
FILE "10 A Wake A Week.flac" WAVE
TRACK 10 AUDIO
TITLE "A Wake A Week"
INDEX 01 00:00:00

Год выпуска: 2010
Продолжительность: 00:16:41
Треклист:

01. The Very Idea (06:17)
02. Abandon (05:44)
03. Perigee (04:40)

-----------------------

DON'T MODIFY THIS FILE

-----------------------

PERFORMER: auCDtect Task Manager, ver. 1.5.1RC6 build 1.5.1.7
Copyright (c) 2008-2010 y-soft. All rights reserved
http://y-soft.org

ANALYZER: auCDtect: CD records authenticity detector, version 0.8.2
Copyright (c) 2004 Oleg Berngardt. All rights reserved.
Copyright (c) 2004 Alexander Djourik. All rights reserved.

FILE: 03. Perigee.flac
Size: 30264920 Hash: D77B832B371FB963BD754BF3302B7EE4 Accuracy: -m0
Conclusion: CDDA 100%
Signature: 047947A9A5708E6AC1CEBEB374CC8AD1BA627CEA
FILE: 02. Abandon.flac
Size: 40984599 Hash: E0221A3F80040D94DC0296E69A7B8B4A Accuracy: -m0
Conclusion: CDDA 100%
Signature: 4D7B2A4D2D5C21C81D4AAEA58E3CEA39D8FF51EB
FILE: 01. The Very Idea.flac
Size: 36397245 Hash: AD9F761AD21387A395BF4132E4642D10 Accuracy: -m0
Conclusion: CDDA 100%
Signature: 8368363A87D80F86FF0A205A1FE9960D0FA393AF

Год выпуска: 2011
Продолжительность: 00:20:22
Треклист:

01. Indigo (04:23)
02. With Love (07:30)
03. Through Line (03:32)
04. Forgetting (04:57)

-----------------------

DON'T MODIFY THIS FILE

-----------------------

PERFORMER: auCDtect Task Manager, ver. 1.5.1RC6 build 1.5.1.7
Copyright (c) 2008-2010 y-soft. All rights reserved
http://y-soft.org

ANALYZER: auCDtect: CD records authenticity detector, version 0.8.2
Copyright (c) 2004 Oleg Berngardt. All rights reserved.
Copyright (c) 2004 Alexander Djourik. All rights reserved.

FILE: 04. Forgetting.flac
Size: 26561388 Hash: 63772E5B73B876C6BCA6812435DA6F26 Accuracy: -m0
Conclusion: CDDA 100%
Signature: B2FCFE2CF31E545B8AC07B29E189C724D024F701
FILE: 03. Through Line.flac
Size: 18611677 Hash: 378E03E0A0309ED34105E8BDE2ACBA62 Accuracy: -m0
Conclusion: CDDA 99%
Signature: 9E9275B9434FE930FACCCF4B6E1927F3A31D2347
FILE: 02. With Love.flac
Size: 45016003 Hash: 81E2EB431E02F6908D275EB6C4BF5B64 Accuracy: -m0
Conclusion: CDDA 100%
Signature: 1136A492DA062F4FF283519B4C16BAE6486386E1
FILE: 01. Indigo.flac
Size: 23394408 Hash: 22E655B6FA4D2032BC6A8BF1DC12DB1D Accuracy: -m0
Conclusion: CDDA 100%
Signature: 0B094E42AA5537C243D08B4A2E64C627A596ABF8

Время раздачи: 12/7
[NNMClub.to]_Detritus (A Wake A Week) FLAC.torrent
 Торрент: Серебряная раздча  Зарегистрирован
 
Примагнититься
Free Leech
Зарегистрируйтесь и скачайте торрент!
27,4 KB
 Зарегистрирован:   06 Ноя 2016 15:30:00
 Размер:   2,95 GB  (
 Рейтинг:   5 (Голосов: 10)
 Поблагодарили:   35
 Проверка:   Оформление проверено модератором 06 Ноя 2016 15:30:41
Как cкачать  ·  Как раздать  ·  Правильно оформить  ·  Поднять ратио!  
Показать сообщения:   
Начать новую тему   Ответить на тему    Торрент-трекер NNM-Club -> Electronic -> IDM (Lossless) Часовой пояс: GMT + 3
Страница 1 из 1