Интеллигентный торрент-трекер
canvas not supported
Нас вместе: 4 112 014

Совершенное оружие / The Perfect Weapon (2016) BDRip [H.264/1080p] [EN, Fr / Fr Sub]


 
 
RSS
Начать новую тему   Ответить на тему    Торрент-трекер NNM-Club -> Зарубежное кино -> Фильмы в оригинале (HD)
Автор Сообщение
smaster67 ®
Модератор Видео
Покровитель талантов Uploader 300+
Стаж: 7 лет 5 мес.
Сообщений: 6275
Ratio: 180,77
Поблагодарили: 174365
100%
Совершенное оружие / The Perfect Weapon (2016) BDRip [H.264/1080p] [EN, Fr / Fr Sub]

Производство: США, Швеция
Жанр: фантастика, боевик

Режиссер: Маттиас Пар
Актеры: Стивен Сигал, Кимберли Баттиста, Джонни Месснер, Саша Джексон, Ричард Тайсон, Вернон Уэллс, Сара Кейт Оллсап, Лэнс Э. Николс, Маттиас Пар, Маршал Хилтон, Филип Форнах

Описание:
В не слишком отдаленном будущем, тоталитарное государство с тайной правительственной организацией управляемая Директором контролирует любые аспекты жизни. Все «враги государства» находятся под особым контролем и большинство из них казнят оперативники тайной организации и профессиональные убийцы. Лучший оперативник с кодовым именем Кондор - элитный агент и наёмный убийца у правительства. Однако, в своем последнем задании он не убил лидера оппозиции и оказывается в бегах от государства на которое работает. В конечном итоге, это задействует цепочку событий с непредсказуемыми последствиями для всех участников. Может ли теперь Кондор выжить в охоте за ним всего могущественного государства и предательства так называемых союзников, ведь он и есть идеальное оружие.



Продолжительность: 01:23:33
Качество видео: BDRip 1080p
Перевод: Отсутствует
Язык озвучки: Английский, французский
Язык субтитров: французский
Вид субтитров: Вшитые

Видео: AVC, 1920x800 (2.40:1), 8215 kbps, 25 fps, 0,214 bpp
Аудио №1: французский / DTS / 5.1 / 48 kHz / 1509 kbps / 24 bit
Аудио №2: английский / DTS / 5.1 / 48 kHz / 1509 kbps / 24 bit
Код: выделить все
General
Complete name                          The Perfect Weapon.2016.1080p.mkv
Format                                   : Matroska
Format version                           : Version 2
File size                                : 6.55 GiB
Duration                                 : 1 h 23 min
Overall bit rate                         : 11.2 Mb/s
Writing application                      : mkvmerge v6.6.0 ('The Edge Of The In Between') built on Dec 1 2013 17:55:00
Writing library                          : libebml v1.3.0 + libmatroska v1.4.1

Video
ID                                       : 1
Format                                   : AVC
Format/Info                              : Advanced Video Codec
Format profile                           : High@L4.1
Format settings, CABAC                   : Yes
Format settings, ReFrames                : 5 frames
Codec ID                                 : V_MPEG4/ISO/AVC
Duration                                 : 1 h 23 min
Bit rate                                 : 8 215 kb/s
Width                                    : 1 920 pixels
Height                                   : 800 pixels
Display aspect ratio                     : 2.40:1
Frame rate mode                          : Constant
Frame rate                               : 25.000 FPS
Color space                              : YUV
Chroma subsampling                       : 4:2:0
Bit depth                                : 8 bits
Scan type                                : Progressive
Bits/(Pixel*Frame)                       : 0.214
Stream size                              : 4.66 GiB (71%)
Writing library                          : x264 core 148 r2705 3f5ed56
Encoding settings                        : cabac=1 / ref=5 / deblock=1:0:0 / analyse=0x3:0x113 / me=umh / subme=8 / psy=1 / psy_rd=1.00:0.00 / mixed_ref=1 / me_range=16 / chroma_me=1 / trellis=1 / 8x8dct=1 / cqm=0 / deadzone=21,11 / fast_pskip=1 / chroma_qp_offset=-2 / threads=18 / lookahead_threads=3 / sliced_threads=0 / nr=0 / decimate=1 / interlaced=0 / bluray_compat=0 / constrained_intra=0 / bframes=3 / b_pyramid=2 / b_adapt=2 / b_bias=0 / direct=3 / weightb=1 / open_gop=0 / weightp=2 / keyint=250 / keyint_min=25 / scenecut=40 / intra_refresh=0 / rc_lookahead=50 / rc=2pass / mbtree=1 / bitrate=8215 / ratetol=1.0 / qcomp=0.60 / qpmin=0 / qpmax=69 / qpstep=4 / cplxblur=20.0 / qblur=0.5 / ip_ratio=1.40 / aq=1:1.00
Language                                 : English
Default                                  : Yes
Forced                                   : No

Audio #1
ID                                       : 2
Format                                   : DTS
Format/Info                              : Digital Theater Systems
Mode                                     : 16
Format settings, Endianness              : Big
Codec ID                                 : A_DTS
Duration                                 : 1 h 23 min
Bit rate mode                            : Constant
Bit rate                                 : 1 509 kb/s
Channel(s)                               : 6 channels
Channel positions                        : Front: L C R, Side: L R, LFE
Sampling rate                            : 48.0 kHz
Frame rate                               : 93.750 FPS (512 spf)
Bit depth                                : 24 bits
Compression mode                         : Lossy
Stream size                              : 902 MiB (13%)
Title                                    : French DTS 1509kbps
Language                                 : French
Default                                  : Yes
Forced                                   : No

Audio #2
ID                                       : 3
Format                                   : DTS
Format/Info                              : Digital Theater Systems
Mode                                     : 16
Format settings, Endianness              : Big
Codec ID                                 : A_DTS
Duration                                 : 1 h 23 min
Bit rate mode                            : Constant
Bit rate                                 : 1 509 kb/s
Channel(s)                               : 6 channels
Channel positions                        : Front: L C R, Side: L R, LFE
Sampling rate                            : 48.0 kHz
Frame rate                               : 93.750 FPS (512 spf)
Bit depth                                : 24 bits
Compression mode                         : Lossy
Stream size                              : 902 MiB (13%)
Title                                    : English DTS 1509kbps
Language                                 : English
Default                                  : Yes
Forced                                   : No

Text
ID                                       : 4
Format                                   : UTF-8
Codec ID                                 : S_TEXT/UTF8
Codec ID/Info                            : UTF-8 Plain Text
Title                                    : French
Language                                 : French
Default                                  : No
Forced                                   : No

Menu
00:00:00.000                             : en:00:00:00.000
00:06:19.160                             : en:00:06:19.160
00:14:25.960                             : en:00:14:25.960
00:20:58.320                             : en:00:20:58.320
00:26:15.720                             : en:00:26:15.720
00:34:07.120                             : en:00:34:07.120
00:40:02.800                             : en:00:40:02.800
00:45:45.280                             : en:00:45:45.280
00:53:52.520                             : en:00:53:52.520
01:00:06.200                             : en:01:00:06.200
01:09:11.080                             : en:01:09:11.080
01:15:48.160                             : en:01:15:48.160

Скриншоты:



Все одноименные релизы в Клубе

Время раздачи: с 13:00 до 23:00
[NNMClub.to]_The Perfect Weapon.2016.1080p.mkv.torrent
 Торрент: Золотая раздача  Зарегистрирован
 
Примагнититься
Free Leech
Зарегистрируйтесь и скачайте торрент!
33 KB
 Зарегистрирован:   06 Ноя 2016 23:53:04
 Размер:   6,55 GB  (
 Рейтинг:   3,3 (Голосов: 19)
 Поблагодарили:   71
 Проверка:   Оформление проверено модератором 06 Ноя 2016 23:53:51
Как cкачать  ·  Как раздать  ·  Правильно оформить  ·  Поднять ратио!  
foa370
Стаж: 9 лет 7 мес.
Сообщений: 139
Ratio: 5,878
Поблагодарили: 56
11.39%
Фильм запрещён к показу на украине...)))
Показать сообщения:   
Начать новую тему   Ответить на тему    Торрент-трекер NNM-Club -> Зарубежное кино -> Фильмы в оригинале (HD) Часовой пояс: GMT + 3
Страница 1 из 1