Интеллигентный торрент-трекер
canvas not supported
Нас вместе: 4 100 727

Парни со стволами / War Dogs (2016) BDRip [H.264/1080p] [EN]


 
 
RSS
Начать новую тему   Ответить на тему    Торрент-трекер NNM-Club -> Зарубежное кино -> Фильмы в оригинале (HD)
Автор Сообщение
smaster67 ®
Модератор Видео
Покровитель талантов Uploader 300+
Стаж: 7 лет 5 мес.
Сообщений: 6250
Ratio: 179,944
Поблагодарили: 173515
100%
Парни со стволами / War Dogs (2016) BDRip [H.264/1080p] [EN]

Производство: США
Жанр: драма, комедия, криминал, военный

Режиссер: Тодд Филлипс
Актеры: Майлз Теллер, Джона Хилл, Ана де Армас, Кевин Поллак, Брэдли Купер, Джейби Бланк, Шон Тоуб, Патрик Ст. Эсприт, Андрей Финти, Эдди Джемисон, Стив Лэнц, Грегг Уэйнер

Описание:
Реальная история о приятелях-планокурах из Майами, умудрившихся выбить в Пентагоне контракт на 300 миллионов долларов на поставку оружия.



Продолжительность: 01:54:12
Качество видео: BDRip 1080p
Перевод: Отсутствует
Язык озвучки: Английский

Видео: AVC, 1920x800 (2.40:1), 9452 kbps, 23,976 fps, 0,257 bpp
Аудио: английский / DTS / 5.1 / 48 kHz / 1509 kbps / 24 bit
Код: выделить все
General
Unique ID                                War.Dogs.2016.1080p.mkv
Format                                   : Matroska
Format version                           : Version 4 / Version 2
File size                                : 8.74 GiB
Duration                                 : 1 h 54 min
Overall bit rate                         : 11.0 Mb/s
Encoded date                             : UTC 2016-11-07 23:02:26
Writing application                      : mkvmerge v8.3.0 ('Over the Horizon') 64bit
Writing library                          : libebml v1.3.1 + libmatroska v1.4.2

Video
ID                                       : 1
Format                                   : AVC
Format/Info                              : Advanced Video Codec
Format profile                           : High@L4.1
Format settings, CABAC                   : Yes
Format settings, ReFrames                : 5 frames
Codec ID                                 : V_MPEG4/ISO/AVC
Duration                                 : 1 h 54 min
Bit rate                                 : 9 452 kb/s
Width                                    : 1 920 pixels
Height                                   : 800 pixels
Display aspect ratio                     : 2.40:1
Frame rate mode                          : Constant
Frame rate                               : 23.976 FPS
Color space                              : YUV
Chroma subsampling                       : 4:2:0
Bit depth                                : 8 bits
Scan type                                : Progressive
Bits/(Pixel*Frame)                       : 0.257
Stream size                              : 7.54 GiB (86%)
Writing library                          : x264 core 148 r2705 3f5ed56
Encoding settings                        : cabac=1 / ref=5 / deblock=1:0:0 / analyse=0x3:0x133 / me=umh / subme=7 / psy=1 / psy_rd=1.00:0.00 / mixed_ref=1 / me_range=16 / chroma_me=1 / trellis=1 / 8x8dct=1 / cqm=0 / deadzone=21,11 / fast_pskip=0 / chroma_qp_offset=-2 / threads=25 / lookahead_threads=4 / sliced_threads=0 / nr=0 / decimate=1 / interlaced=0 / bluray_compat=0 / constrained_intra=0 / bframes=3 / b_pyramid=2 / b_adapt=1 / b_bias=0 / direct=1 / weightb=1 / open_gop=0 / weightp=2 / keyint=250 / keyint_min=23 / scenecut=40 / intra_refresh=0 / rc_lookahead=40 / rc=2pass / mbtree=1 / bitrate=9452 / ratetol=1.0 / qcomp=0.60 / qpmin=0 / qpmax=69 / qpstep=4 / cplxblur=20.0 / qblur=0.5 / ip_ratio=1.40 / aq=1:1.00
Language                                 : English
Default                                  : Yes
Forced                                   : No

Audio
ID                                       : 2
Format                                   : DTS
Format/Info                              : Digital Theater Systems
Mode                                     : 16
Format settings, Endianness              : Big
Codec ID                                 : A_DTS
Duration                                 : 1 h 54 min
Bit rate mode                            : Constant
Bit rate                                 : 1 509 kb/s
Channel(s)                               : 6 channels
Channel positions                        : Front: L C R, Side: L R, LFE
Sampling rate                            : 48.0 kHz
Frame rate                               : 93.750 FPS (512 spf)
Bit depth                                : 24 bits
Compression mode                         : Lossy
Stream size                              : 1.20 GiB (14%)
Language                                 : English
Default                                  : Yes
Forced                                   : No

Menu
00:00:00.000                             : en:00:00:00.000
00:10:13.780                             : en:00:10:13.780
00:19:00.931                             : en:00:19:00.931
00:30:21.111                             : en:00:30:21.111
00:40:02.525                             : en:00:40:02.525
00:50:56.178                             : en:00:50:56.178
00:59:34.362                             : en:00:59:34.362
01:10:59.380                             : en:01:10:59.380
01:20:08.929                             : en:01:20:08.929
01:32:06.020                             : en:01:32:06.020
01:39:36.220                             : en:01:39:36.220
01:48:19.118                             : en:01:48:19.118

Скриншоты:



Все одноименные релизы в Клубе

Время раздачи: с 13:00 до 23:00
[NNMClub.to]_War.Dogs.2016.1080p.mkv.torrent
 Торрент: Золотая раздача  Зарегистрирован
 
Примагнититься
Free Leech
Зарегистрируйтесь и скачайте торрент!
43,9 KB
 Зарегистрирован:   08 Ноя 2016 09:11:56
 Размер:   8,74 GB  (
 Рейтинг:   4,4 (Голосов: 12)
 Поблагодарили:   70
 Проверка:   Оформление проверено модератором 08 Ноя 2016 09:12:25
Как cкачать  ·  Как раздать  ·  Правильно оформить  ·  Поднять ратио!  
mzemze
Стаж: 9 лет 7 мес.
Сообщений: 91
Ratio: 0,995
Поблагодарили: 63
0.71%
Откуда 8.5 рейтинг-то? За релизы - спасибо, за дутое накручивание рейтингов фильмов (почти всех выкладываемых данным релизером), что искажает факты, хочется сказать что-то не самое приятное... может, пора уже перестать это делать?
Aruslanov
Стаж: 3 года 1 мес.
Сообщений: 1017
Ratio: 31,68
Поблагодарили: 6910
88.13%
Откуда: Там всегда слизисто
the_Marshall_Islands.gif
mzemze писал(а): Перейти к сообщению
Откуда 8.5 рейтинг-то? За релизы - спасибо, за дутое накручивание рейтингов фильмов (почти всех выкладываемых данным релизером), что искажает факты, хочется сказать что-то не самое приятное... может, пора уже перестать это делать?


Рейтинг мог упасть с момента взятия ссылки ( на старых раздачах вообще 8.5 . Вас это не смущает?). даже если вы не любите imdb то рейтинг КП правильный.

_________________
01001110100010101100101000101110101001010101111010101
teraf​lop20​11​
 
Стаж: 5 лет 9 мес.
Сообщений: 266
Ratio: 0,454
1.07%
mzemze писал(а): Перейти к сообщению
Откуда 8.5 рейтинг-то? ...может, пора уже перестать это делать?


Может, пора уже перестать тупить?
Показать сообщения:   
Начать новую тему   Ответить на тему    Торрент-трекер NNM-Club -> Зарубежное кино -> Фильмы в оригинале (HD) Часовой пояс: GMT + 3
Страница 1 из 1