Интеллигентный торрент-трекер
canvas not supported
Нас вместе: 4 108 943

Gregorian - Live! Masters Of Chant - Final Chapter Tour (2016) [FLAC|Lossless|image+.cue] <New Age, Enigmatic, Rock>


 
 
RSS
Начать новую тему   Ответить на тему    Торрент-трекер NNM-Club -> Other Styles -> New Age/Meditative/Relax (Lossless)
Автор Сообщение
Lazyra ®
Модератор Electronic
RG Музыки
 
Стаж: 5 лет 9 мес.
Сообщений: 4318
Ratio: 1551,386
Раздал: 49,68 TB
Поблагодарили: 88610
100%
Откуда: Владимир
russia.gif
Gregorian - Live! Masters Of Chant - Final Chapter Tour (2016)



Год: 2016
Жанр: New Age, Enigmatic, Rock
Продолжительность: 01:58:42
Лейбл: earMUSIC
Каталог №: 0211501EMU
Тип рипа: image+.cue
Кодек: FLAC
Битрейт: Lossless

Треклист:

Треклист:
01. Masters Of Chant
02. Still Haven't Found What I’m Looking For - Only You
03. Stay
04. Join Me
05. Lady In Black
06. Meadows Of Heaven
07. Now We Are Free
08. Strong
09. Shout
10. Cry Softly
11. Hurt
12. The Raven
13. Kiss From A Rose

Продолжительность: 00:59:34
Код: выделить все

Exact Audio Copy V1.1 from 23. June 2015

EAC extraction logfile from 15. October 2016, 20:30

Gregorian / Masters Of Chant Final Chapter Tour CD1

Used drive  : PIONEER BD-RW   BDR-209D   Adapter: 0  ID: 5

Read mode               : Secure
Utilize accurate stream : Yes
Defeat audio cache      : Yes
Make use of C2 pointers : No

Read offset correction                      : 667
Overread into Lead-In and Lead-Out          : No
Fill up missing offset samples with silence : Yes
Delete leading and trailing silent blocks   : No
Null samples used in CRC calculations       : Yes
Used interface                              : Installed external ASPI interface

Used output format              : User Defined Encoder
Selected bitrate                : 768 kBit/s
Quality                         : High
Add ID3 tag                     : No
Command line compressor         : C:\Program Files (x86)\Exact Audio Copy\FLAC\FLAC.EXE
Additional command line options : -6 -V -T "ARTIST=%artist%" -T "TITLE=%title%" -T "ALBUM=%albumtitle%" -T "DATE=%year%" -T "TRACKNUMBER=%tracknr%" -T "GENRE=%genre%" -T "COMMENT=%comment%" -T "BAND=%albuminterpret%" -T "ALBUMARTIST=%albuminterpret%" -T "COMPOSER=%composer%" %haslyrics%--tag-from-file=LYRICS="%lyricsfile%"%haslyrics% -T "DISCNUMBER=%cdnumber%" -T "TOTALDISCS=%totalcds%" -T "TOTALTRACKS=%numtracks%" %hascover%--picture="%coverfile%"%hascover% %source% -o %dest%

TOC of the extracted CD

     Track |   Start  |  Length  | Start sector | End sector
    ---------------------------------------------------------
        1  |  0:00.00 |  3:24.68 |         0    |    15367
        2  |  3:24.68 |  4:52.19 |     15368    |    37286
        3  |  8:17.12 |  3:57.70 |     37287    |    55131
        4  | 12:15.07 |  4:20.58 |     55132    |    74689
        5  | 16:35.65 |  4:30.14 |     74690    |    94953
        6  | 21:06.04 |  5:20.47 |     94954    |   119000
        7  | 26:26.51 |  3:28.36 |    119001    |   134636
        8  | 29:55.12 |  3:29.29 |    134637    |   150340
        9  | 33:24.41 |  6:16.40 |    150341    |   178580
       10  | 39:41.06 |  4:26.54 |    178581    |   198584
       11  | 44:07.60 |  5:51.17 |    198585    |   224926
       12  | 49:59.02 |  4:20.29 |    224927    |   244455
       13  | 54:19.31 |  5:14.68 |    244456    |   268073

Range status and errors

Selected range

     Filename E:\MUSIC\Gregorian - Masters Of Chant Final Chapter Tour CD1.wav

     Peak level 97.7 %
     Extraction speed 7.6 X
     Range quality 99.9 %
     Test CRC 12AC94D1
     Copy CRC 12AC94D1
     Copy OK

No errors occurred

AccurateRip summary

Track  1  not present in database
Track  2  not present in database
Track  3  not present in database
Track  4  not present in database
Track  5  not present in database
Track  6  not present in database
Track  7  not present in database
Track  8  not present in database
Track  9  not present in database
Track 10  not present in database
Track 11  not present in database
Track 12  not present in database
Track 13  not present in database

None of the tracks are present in the AccurateRip database

End of status report

==== Log checksum AB717A2847FC3C2F05EDA31499ADA5967A655810F7CCF3785BE88FFA6C6C55A0 ====

Код: выделить все

-----------------------

DON'T MODIFY THIS FILE

-----------------------

PERFORMER: auCDtect Task Manager, ver. 1.6.0 RC1 build 1.6.0.1
Copyright (c) 2008-2010 y-soft. All rights reserved
http://y-soft.org

ANALYZER: auCDtect: CD records authenticity detector, version 0.8.2
Copyright (c) 2004 Oleg Berngardt. All rights reserved.
Copyright (c) 2004 Alexander Djourik. All rights reserved.

FILE: Gregorian - Masters Of Chant Final Chapter Tour CD1.flac
  Size: 407368121 Hash: 1898E9F188DA7B4247505A7441A47B5E Accuracy: -m0
  Conclusion: CDDA 99%
  Signature: 15753C56557D060FBCE30A858640054FA21E5BDF


Трек лист:
01. Crying In The Rain
02. Caruso
03. One
04. World Without End
05. Born To Feel Alive
06. Hells Bells
07. In My Life - Crazy, Crazy Nights - Good Night Companions
08. Time To Say Goodbye
09. Gloria: Gregorian Version
10. Moment Of Peace
11. Hymn
12. Just For You
13. Sky & Sand

Продолжительность: 00:59:08
Код: выделить все

Exact Audio Copy V1.1 from 23. June 2015

EAC extraction logfile from 15. October 2016, 21:14

Gregorian / Masters Of Chant Final Chapter Tour CD2

Used drive  : PIONEER BD-RW   BDR-209D   Adapter: 0  ID: 5

Read mode               : Secure
Utilize accurate stream : Yes
Defeat audio cache      : Yes
Make use of C2 pointers : No

Read offset correction                      : 667
Overread into Lead-In and Lead-Out          : No
Fill up missing offset samples with silence : Yes
Delete leading and trailing silent blocks   : No
Null samples used in CRC calculations       : Yes
Used interface                              : Installed external ASPI interface

Used output format              : User Defined Encoder
Selected bitrate                : 768 kBit/s
Quality                         : High
Add ID3 tag                     : No
Command line compressor         : C:\Program Files (x86)\Exact Audio Copy\FLAC\FLAC.EXE
Additional command line options : -6 -V -T "ARTIST=%artist%" -T "TITLE=%title%" -T "ALBUM=%albumtitle%" -T "DATE=%year%" -T "TRACKNUMBER=%tracknr%" -T "GENRE=%genre%" -T "COMMENT=%comment%" -T "BAND=%albuminterpret%" -T "ALBUMARTIST=%albuminterpret%" -T "COMPOSER=%composer%" %haslyrics%--tag-from-file=LYRICS="%lyricsfile%"%haslyrics% -T "DISCNUMBER=%cdnumber%" -T "TOTALDISCS=%totalcds%" -T "TOTALTRACKS=%numtracks%" %hascover%--picture="%coverfile%"%hascover% %source% -o %dest%

TOC of the extracted CD

     Track |   Start  |  Length  | Start sector | End sector
    ---------------------------------------------------------
        1  |  0:00.00 |  4:52.15 |         0    |    21914
        2  |  4:52.15 |  3:16.72 |     21915    |    36686
        3  |  8:09.12 |  4:58.45 |     36687    |    59081
        4  | 13:07.57 |  3:37.64 |     59082    |    75420
        5  | 16:45.46 |  3:49.14 |     75421    |    92609
        6  | 20:34.60 |  5:15.16 |     92610    |   116250
        7  | 25:50.01 |  4:21.02 |    116251    |   135827
        8  | 30:11.03 |  4:21.74 |    135828    |   155476
        9  | 34:33.02 |  5:23.01 |    155477    |   179702
       10  | 39:56.03 |  4:17.34 |    179703    |   199011
       11  | 44:13.37 |  5:19.19 |    199012    |   222955
       12  | 49:32.56 |  3:53.27 |    222956    |   240457
       13  | 53:26.08 |  5:42.30 |    240458    |   266137

Range status and errors

Selected range

     Filename E:\MUSIC\Gregorian - Masters Of Chant Final Chapter Tour CD2.wav

     Peak level 97.7 %
     Extraction speed 7.6 X
     Range quality 100.0 %
     Test CRC ADAA2EC4
     Copy CRC ADAA2EC4
     Copy OK

No errors occurred

AccurateRip summary

Track  1  not present in database
Track  2  not present in database
Track  3  not present in database
Track  4  not present in database
Track  5  not present in database
Track  6  not present in database
Track  7  not present in database
Track  8  not present in database
Track  9  not present in database
Track 10  not present in database
Track 11  not present in database
Track 12  not present in database
Track 13  not present in database

None of the tracks are present in the AccurateRip database

End of status report

==== Log checksum 0D758A81EC5F9BAA248453BAC88609FAB5BFD724FBF17D1A4597479B6B8BCAEE ====

Код: выделить все

----------------------

DON'T MODIFY THIS FILE

-----------------------

PERFORMER: auCDtect Task Manager, ver. 1.6.0 RC1 build 1.6.0.1
Copyright (c) 2008-2010 y-soft. All rights reserved
http://y-soft.org

ANALYZER: auCDtect: CD records authenticity detector, version 0.8.2
Copyright (c) 2004 Oleg Berngardt. All rights reserved.
Copyright (c) 2004 Alexander Djourik. All rights reserved.

FILE: Gregorian - Masters Of Chant Final Chapter Tour CD2.flac
  Size: 396181114 Hash: A2AB75878F2A62E2B021616577DDB2DF Accuracy: -m0
  Conclusion: MPEG 95%
  Signature: B18D55CCB93D1BB73158B0EF12EC21A0DBCDDCC0

Время раздачи: 24/7
[NNMClub.to]_Gregorian - Live! Masters Of Chant - Final Chapter Tour (2016) [FLAC-CD].torrent
 Торрент:   Зарегистрирован
 
Примагнититься
Free Leech
Зарегистрируйтесь и скачайте торрент!
17,8 KB
 Зарегистрирован:   08 Ноя 2016 12:01:17
 Размер:   834 MB  (
 Рейтинг:   4,9 (Голосов: 23)
 Поблагодарили:   123
 Проверка:   Оформление проверено модератором 08 Ноя 2016 13:14:34
Как cкачать  ·  Как раздать  ·  Правильно оформить  ·  Поднять ратио!  
GALICHINA
Стаж: 4 года 1 мес.
Сообщений: 18
Ratio: 1,38
0.63%
Откуда: Киев
ukraine.gif
Шикарный тур, очень круто спели! На одном дыхании прослушал! =)
leolegas
Стаж: 9 лет 9 мес.
Сообщений: 169
Ratio: 5,315
Поблагодарили: 245
82.76%
ireland.gif
Простите, а само видео концерта где можно качнуть?

_________________
Люблю боулинг. Это единственное место, где можно пить пиво и при этом думать, что занимаешься спортом.
SergAS70
Стаж: 6 лет 9 мес.
Сообщений: 477
Ratio: 24,501
Раздал: 24,38 TB
Поблагодарили: 23396
100%
leolegas писал(а): Перейти к сообщению
Простите, а само видео концерта где можно качнуть?

Gregorian - Live! Masters of Chant Final Chapter Tour (2016) BDRip [1080p]
забирайте.
leolegas
Стаж: 9 лет 9 мес.
Сообщений: 169
Ratio: 5,315
Поблагодарили: 245
82.76%
ireland.gif
Громадное СПАСИБО!

_________________
Люблю боулинг. Это единственное место, где можно пить пиво и при этом думать, что занимаешься спортом.
Показать сообщения:   
Начать новую тему   Ответить на тему    Торрент-трекер NNM-Club -> Other Styles -> New Age/Meditative/Relax (Lossless) Часовой пояс: GMT + 3
Страница 1 из 1